Strona 1 z 2 1 2 OstatniOstatni
Pokaż wyniki od 1 do 10 z 11
  1. #1
    Professional Uploader Avatar Léon
    Dołączył
    16.12.2013
    Skąd
    Paryż
    Postów
    5 411
    Postawił
    33
    Piwa otrzymane
    16 402 (4 968)

    OK Thor: Mroczny świat | 2013 [PL.DUB][3D][H-SBS][1080p][BluRay]


    Thor: Mroczny świat (2013)
    Thor: The Dark World







    Ocena: 7,2/10
    Produkcja: USA
    Gatunek: Fantasy
    Światowa Premiera: 2013-10-30
    Polska Premiera: 2013-11-08
    Reżyseria: Alan Taylor
    Zdjęcia: Kramer Morgenthau
    Scenariusz: Christopher YostChristopher MarkusStephen McFeely
    Muzyka: Brian Tyler
    Czas trwania: 1 godz. 52 min.
    Dystrybucja: Disney
    O filmie: Thor: Mroczny świat (2013) - Filmweb





    Chris Hemsworth - Thor
    Natalie Portman - Jane Foster
    Tom Hiddleston - Loki
    Anthony Hopkins - Odyn





    "Thor: Mroczny świat" to kontynuacja przygód Thora, który nie ustaje w walce o ocalenie Ziemi i pozostałych Ośmiu Królestw przed tajemniczym, starszym niż wszechświat wrogiem. Po wydarzeniach z filmów "Thor" i "Avengers", Thor próbuje zaprowadzić porządek w kosmosie, ale starożytna rasa, dowodzona przez mściwego Malekitha powraca, by zepchnąć wszechświat w ciemność. Stając do walki z wrogiem, którego nie może pokonać nawet Asgard pod wodzą Odyna, superbohater musi udać się na[span class="fullText hide"]niebezpieczną wyprawę, podczas której ponownie zjednoczy siły z Jane Foster i poświęci wszystko, by ratować nas wszystkich.









    Kod:
    Format : Matroska
    Format version : Version 4 / Version 2
    File size: 9.69 GiB
    Duration : 1h 52mn
    Overall bit rate : 12.4 Mbps
    Encoded date : UTC 2014-03-08 11:09:07
    Writing application: mkvmerge v6.6.0 ('The Edge Of The In Between') built on Dec1 2013 17:55:00
    Writing library: libebml v1.3.0 + libmatroska v1.4.1
    
    Video
    ID : 1
    Format : AVC
    Format/Info: Advanced Video Codec
    Format profile : [email protected]
    Format settings, CABAC : Yes
    Format settings, ReFrames: 2 frames
    Codec ID : V_MPEG4/ISO/AVC
    Duration : 1h 52mn
    Bit rate : 11.7 Mbps
    Width: 1 920 pixels
    Height : 1 080 pixels
    Display aspect ratio : 16:9
    Frame rate mode: Constant
    Frame rate : 23.976 fps
    Color space: YUV
    Chroma subsampling : 4:2:0
    Bit depth: 8 bits
    Scan type: Progressive
    Bits/(Pixel*Frame) : 0.235
    Stream size: 9.14 GiB (94%)
    Writing library: x264 core
    Language : English
    Default: Yes
    Forced : No
    Color primaries: BT.709
    Transfer characteristics : BT.709
    Matrix coefficients: BT.709
    
    Audio
    ID : 2
    Format : AC-3
    Format/Info: Audio Coding 3
    Mode extension : CM (complete main)
    Format settings, Endianness: Big
    Codec ID : A_AC3
    Duration : 1h 52mn
    Bit rate mode: Constant
    Bit rate : 448 Kbps
    Channel(s) : 6 channels
    Channel positions: Front: L C R, Side: L R, LFE
    Sampling rate: 48.0 KHz
    Bit depth: 16 bits
    Compression mode : Lossy
    Stream size: 359 MiB (4%)
    Title: Dubbing Gepetto21
    Language : Polish
    Default: Yes
    Forced : No

    Part 1


    Nazwa pliku: Thor.The.Dark.World.3D.2013.PL.DUB.1080p.BluRay.Half-SBS.x264.part1.rar
    Rozmiar pliku: 3850,00 MB
    CRC32: 0B1BE066
    Liczba segmentów: 453
    Liczba mirrorów: 9
    Uploader: Leon Zawodowiec
    Upload dla: p2m.net.pl


    Part 2


    Nazwa pliku: Thor.The.Dark.World.3D.2013.PL.DUB.1080p.BluRay.Half-SBS.x264.part2.rar
    Rozmiar pliku: 3850,00 MB
    CRC32: F0B915F8
    Liczba segmentów: 454
    Liczba mirrorów: 10
    Uploader: Leon Zawodowiec
    Upload dla: p2m.net.pl


    Part 3


    Nazwa pliku: Thor.The.Dark.World.3D.2013.PL.DUB.1080p.BluRay.Half-SBS.x264.part3.rar
    Rozmiar pliku: 3028,64 MB
    CRC32: 8639E1D4
    Liczba segmentów: 355
    Liczba mirrorów: 9
    Uploader: Leon Zawodowiec
    Upload dla: p2m.net.pl




    Part 1


    Pokaż HC

     
    Wszystko w porządku
    Zakończenie sprawdzania segmentów: 2014-04-08 19:32:58


    Part 2


    Pokaż HC



    Part 3


    Pokaż HC

     
    Wszystko w porządku
    Zakończenie sprawdzania segmentów: 2014-04-08 19:28:58
    by Pyskaty.





  2. Léon upija się na koszt:

    W (8.04.2014)

  3. #2
    Member
    Dołączył
    16.04.2007
    Postów
    5
    Postawił
    1
    Piwa otrzymane
    6 (5)

    Domyślnie

    Nie mozna sciagnac segmentu 169 w part 2.

  4. motyr upija się na koszt:

    W (15.04.2014)

  5. #3
    Moderator
    Avatar bodziosol
    Dołączył
    27.06.2008
    Postów
    169
    Postawił
    76
    Piwa otrzymane
    464 (362)

    Domyślnie

    Jakaś informacja wyskakuje? Próbowałeś ściągać z innej skrzynki?

  6. bodziosol upija się na koszt:

    W (15.04.2014)

  7. #4
    Member
    Dołączył
    16.04.2007
    Postów
    5
    Postawił
    1
    Piwa otrzymane
    6 (5)

    Domyślnie

    Nie ma zadnej informacji. Segment sciaga sie jeden raz, zaraz potem drugi raz i sie zatrzymuje i tyle. Probowalem z wszystkich skrzynek i jest to samo. Probowalem sciagnac plik 4 razy na dwoch roznych komputerach i jest to samo. Jak klikne na sprawdzanie segmentow to niby jest wszystko OK, ale nadal nie idzie sciagnac segmentu.

  8. motyr upija się na koszt:

    W (18.04.2014)

  9. #5
    Moderator
    Avatar bodziosol
    Dołączył
    27.06.2008
    Postów
    169
    Postawił
    76
    Piwa otrzymane
    464 (362)

    Domyślnie

    A w Informacja co pisze jak próbujesz ściągnąć ten segment?

  10. bodziosol upija się na koszt:

    W (18.04.2014)

  11. #6
    Member
    Dołączył
    10.10.2007
    Postów
    15
    Postawił
    2
    Piwa otrzymane
    12 (8)

    Domyślnie

    po sciagnieciu całości i tak nie da sie tego rozpakowac bo sa bledy. Winrar naprawia potem rebuild i tak nic nie daje


  12. indi765 upija się na koszt:

    W (19.04.2014)

  13. #7
    Professional Uploader Avatar Léon
    Dołączył
    16.12.2013
    Skąd
    Paryż
    Postów
    5 411
    Postawił
    33
    Piwa otrzymane
    16 402 (4 968)

    Domyślnie

    Mam jeszcze to archiwum wiec bedzie reup.




  14. Léon upija się na koszt:

    W (19.04.2014)

  15. #8
    Professional Uploader Avatar Léon
    Dołączył
    16.12.2013
    Skąd
    Paryż
    Postów
    5 411
    Postawił
    33
    Piwa otrzymane
    16 402 (4 968)

    Domyślnie

    Podmienione HC.




  16. Léon upija się na koszt:

    W (19.04.2014)

  17. #9
    Member
    Dołączył
    16.04.2007
    Postów
    5
    Postawił
    1
    Piwa otrzymane
    6 (5)

    Domyślnie

    W koncu udalo sie sciagnac i rozpakowac. Za okolo 10-tym razem.

  18. motyr upija się na koszt:

    W (20.04.2014)

  19. #10
    Professional Uploader Avatar Léon
    Dołączył
    16.12.2013
    Skąd
    Paryż
    Postów
    5 411
    Postawił
    33
    Piwa otrzymane
    16 402 (4 968)

    Domyślnie

    Cytat Napisał motyr Zobacz post
    W koncu udalo sie sciagnac i rozpakowac. Za okolo 10-tym razem.

    Proponuję czytać treść blędu. "Nieoczekiwany koniec archiwum", zgłasza sie taki upload do poprawy, ponieważ on nie zadziała.




  20. Léon upija się na koszt 2 osób:

    bodziosol (21.04.2014), W (20.04.2014)

Strona 1 z 2 1 2 OstatniOstatni

Zakładki

Zakładki

Uprawnienia

  • Nie możesz zakładać nowych tematów
  • Nie możesz pisać wiadomości
  • Nie możesz dodawać załączników
  • Nie możesz edytować swoich postów
  •  
  • BB Code jest Włączony
  • EmotikonyWłączony
  • [IMG] kod jest Włączony
  • [VIDEO] code is Włączony
  • HTML jest Wyłączony
  • Trackbacki : Wyłączony
  • Pingbacki : Wyłączony
  • Refbacki : Włączony