Pokaż wyniki od 1 do 3 z 3
  1. #1
    Professional Uploader Avatar Léon
    Dołączył
    16.12.2013
    Skąd
    Paryż
    Postów
    5 411
    Postawił
    33
    Piwa otrzymane
    16 407 (4 968)

    OK 47 roninów 3D | 2013 [PL][1080p][BluRay][H-SBS][DTS]


    47 roninów (2013)
    47 Ronin







    Ocena: 6,3/10
    Produkcja: USA,
    Gatunek: Fantasy, Przygodowy,
    Światowa Premiera: 2013-12-06
    Polska Premiera: 2014-01-10
    Reżyseria: Carl Rinsch
    Zdjęcia: John Mathieson
    Scenariusz: Chris MorganHossein AminiWalter Hamada
    Muzyka: Ilan Eshkeri
    Czas trwania: 1 godz. 59 min.
    Dystrybucja: United International Pictures Sp z o.o.
    O filmie: 47 roninów (2013) - Filmweb





    Keanu Reeves - Kai
    Hiroyuki Sanada - Ôishi
    Kô Shibasaki - Mika
    Tadanobu Asano - Lord Kira





    Film oparty na legendarnej historii 47 roninów z początku XVIII wieku. Grupa samurajów przez rok planowała zemstę za śmierć swojego pana na urzędniku sądowym. Winni morderstwa, zgodnie z kodeksem bushido, popełnili grupowe seppuku. Do dziś uważani są za bohaterów narodowych, symbol walki o sprawiedliwość nawet za cenę życia.









    Kod:
    Format : Matroska
    Format version : Version 4 / Version 2
    File size: 11.1 GiB
    Duration : 1h 58mn
    Overall bit rate : 13.4 Mbps
    Encoded date : UTC 2014-04-24 09:22:09
    Writing application: mkvmerge v6.6.0 ('The Edge Of The In Between') built on Dec1 2013 17:55:00
    Writing library: libebml v1.3.0 + libmatroska v1.4.1
    
    Video
    ID : 1
    Format : AVC
    Format/Info: Advanced Video Codec
    Format profile : [email protected]
    Format settings, CABAC : Yes
    Format settings, ReFrames: 5 frames
    Codec ID : V_MPEG4/ISO/AVC
    Duration : 1h 58mn
    Bit rate : 12.0 Mbps
    Width: 1 920 pixels
    Height : 800 pixels
    Display aspect ratio : 2.40:1
    Frame rate mode: Constant
    Frame rate : 23.976 fps
    Color space: YUV
    Chroma subsampling : 4:2:0
    Bit depth: 8 bits
    Scan type: Progressive
    Bits/(Pixel*Frame) : 0.326
    Stream size: 9.73 GiB (88%)
    Language : English
    Default: Yes
    Forced : No
    
    Audio #1
    ID : 2
    Format : DTS
    Format/Info: Digital Theater Systems
    Mode : 16
    Format settings, Endianness: Big
    Codec ID : A_DTS
    Duration : 1h 58mn
    Bit rate mode: Constant
    Bit rate : 768 Kbps
    Channel count: 6 channels
    Channel positions: Front: L C R, Side: L R, LFE
    Sampling rate: 48.0 KHz
    Bit depth: 24 bits
    Compression mode : Lossy
    Stream size: 652 MiB (6%)
    Title: Encoded by Gepetto21
    Language : Polish
    Default: Yes
    Forced : No
    
    Audio #2
    ID : 3
    Format : AC-3
    Format/Info: Audio Coding 3
    Mode extension : CM (complete main)
    Format settings, Endianness: Big
    Codec ID : A_AC3
    Duration : 1h 58mn
    Bit rate mode: Constant
    Bit rate : 640 Kbps
    Channel count: 6 channels
    Channel positions: Front: L C R, Side: L R, LFE
    Sampling rate: 48.0 KHz
    Bit depth: 16 bits
    Compression mode : Lossy
    Stream size: 543 MiB (5%)
    Title: Encoded by Gepetto21
    Language : Polish
    Default: No
    Forced : No

    Part 1


    Nazwa pliku: 47.Ronin.3D.2013.PL.DTS.1080p.BluRay.Half-SBS.x264.part1.rar
    Rozmiar pliku: 4096,00 MB
    CRC32: B322D5A9
    Liczba segmentów: 523
    Liczba mirrorów: 8
    Uploader: Leon
    Upload dla: p2m.net.pl


    Part 2


    Nazwa pliku: 47.Ronin.3D.2013.PL.DTS.1080p.BluRay.Half-SBS.x264.part2.rar
    Rozmiar pliku: 4096,00 MB
    CRC32: 57EB69AC
    Liczba segmentów: 513
    Liczba mirrorów: 9
    Uploader: Leon
    Upload dla: p2m.net.pl


    Part 3


    Nazwa pliku: 47.Ronin.3D.2013.PL.DTS.1080p.BluRay.Half-SBS.x264.part3.rar
    Rozmiar pliku: 3931,18 MB
    CRC32: 27D24E14
    Liczba segmentów: 487
    Liczba mirrorów: 8
    Uploader: Leon
    Upload dla: p2m.net.pl




    Part 1


    Pokaż HC


     
    Wszystko w porządku
    Zakończenie sprawdzania segmentów: 2014-05-31 23:51:29


    Part 2


    Pokaż HC


     
    Wszystko w porządku
    Zakończenie sprawdzania segmentów: 2014-06-01 00:06:42


    Part 3


    Pokaż HC


     
    Wszystko w porządku
    Zakończenie sprawdzania segmentów: 2014-06-01 00:21:59
    bodziosol




    Ostatnio edytowane przez bodziosol ; 1.06.2014 o 00:24




  2. Léon upija się na koszt 2 osób:

    astra1 (19.06.2014), W (1.06.2014)

  3. #2
    Member
    Dołączył
    4.11.2007
    Skąd
    Przemysl
    Postów
    12
    Postawił
    40
    Piwa otrzymane
    14 (9)

    Domyślnie

    witam, czy mógłby ktoś naprawić lub udostępnić jeszcze raz part 2 lub cały film ?

  4. #3
    Member
    Dołączył
    6.01.2014
    Postów
    4
    Postawił
    0
    Piwa otrzymane
    0 (0)

    Domyślnie

    Też mam problem z part 2

Zakładki

Zakładki

Uprawnienia

  • Nie możesz zakładać nowych tematów
  • Nie możesz pisać wiadomości
  • Nie możesz dodawać załączników
  • Nie możesz edytować swoich postów
  •  
  • BB Code jest Włączony
  • EmotikonyWłączony
  • [IMG] kod jest Włączony
  • [VIDEO] code is Włączony
  • HTML jest Wyłączony
  • Trackbacki : Wyłączony
  • Pingbacki : Wyłączony
  • Refbacki : Włączony