Pokaż wyniki od 1 do 1 z 1
  1. #1
    Professional Uploader Avatar Léon
    Dołączył
    16.12.2013
    Skąd
    Paryż
    Postów
    5 411
    Postawił
    33
    Piwa otrzymane
    16 402 (4 968)

    OK Stalingrad 3D | 2013 [MULTi][1080p][BluRay][H-OU]


    Stalingrad (2013)







    Ocena: 5,2/10
    Produkcja: Rosja,
    Gatunek: Dramat, Wojenny,
    Światowa Premiera: 2013-10-10
    Polska Premiera: 2013-11-29
    Reżyseria: Fedor Bondarchuk
    Zdjęcia: Maksim Osadchiy-Korytkovskiy
    Scenariusz: Ilya TilkinSergey Snezhkin
    Muzyka: Angelo Badalamenti
    Czas trwania: 2 godz. 15 min.
    Dystrybucja: United International Pictures Sp z o.o.
    O filmie: Stalingrad (2013) - Filmweb





    Mariya Smolnikova - Katya
    Yanina Studilina - Masha
    Pyotr Fyodorov - Gromov
    Thomas Kretschmann - Peter Kahn





    Listopad 1942 roku, Stalingrad. Grupa rosyjskich żołnierzy zaciekle broni strategicznego budynku, stawiając opór bezwzględnej niemieckiej armii. Między nimi a mieszkającymi w zniszczonym mieście dwiema kobietami tworzą się bardzo silne więzi. Wokół toczy się najkrwawsza bitwa w historii ludzkości, która rani wszystkich. Dramat przeżywają żołnierze, cywile, ale również i niemieccy najeźdźcy. Lecz nawet w najstraszniejszej bitwie jest miejsce na miłość i nadzieję.









    Kod:
    Format : Matroska
    Format version : Version 4 / Version 2
    File size: 8.86 GiB
    Duration : 2h 10mn
    Overall bit rate : 9 688 Kbps
    Encoded date : UTC 2014-05-31 20:58:36
    Writing application: mkvmerge v6.7.0 ('Back to the Ground') 32bit built on Jan8 2014 15:03:17
    Writing library: libebml v1.3.0 + libmatroska v1.4.1
    
    Video
    ID : 1
    Format : AVC
    Format/Info: Advanced Video Codec
    Format profile : [email protected]
    MultiView_Count: 2
    MultiView_Layout : Top-Bottom (left eye first)
    Format settings, CABAC : Yes
    Format settings, ReFrames: 4 frames
    Codec ID : V_MPEG4/ISO/AVC
    Duration : 2h 10mn
    Bit rate : 7 500 Kbps
    Width: 1 920 pixels
    Height : 1 080 pixels
    Display aspect ratio : 16:9
    Frame rate mode: Constant
    Frame rate : 23.976 fps
    Color space: YUV
    Chroma subsampling : 4:2:0
    Bit depth: 8 bits
    Scan type: Progressive
    Bits/(Pixel*Frame) : 0.151
    Stream size: 6.71 GiB (76%)
    Title: FILM
    
    Language : English
    Default: Yes
    Forced : No
    
    Audio #1
    ID : 2
    Format : AC-3
    Format/Info: Audio Coding 3
    Mode extension : CM (complete main)
    Format settings, Endianness: Big
    Codec ID : A_AC3
    Duration : 2h 10mn
    Bit rate mode: Constant
    Bit rate : 640 Kbps
    Channel(s) : 6 channels
    Channel positions: Front: L C R, Side: L R, LFE
    Sampling rate: 48.0 KHz
    Bit depth: 16 bits
    Compression mode : Lossy
    Stream size: 599 MiB (7%)
    Title: PL AUDIO 5.1
    Language : Polish
    Default: Yes
    Forced : No
    
    Audio #2
    ID : 3
    Format : DTS
    Format/Info: Digital Theater Systems
    Mode : 16
    Format settings, Endianness: Big
    Codec ID : A_DTS
    Duration : 2h 10mn
    Bit rate mode: Constant
    Bit rate : 1 509 Kbps
    Channel(s) : 6 channels
    Channel positions: Front: L C R, Side: L R, LFE
    Sampling rate: 48.0 KHz
    Bit depth: 24 bits
    Compression mode : Lossy
    Delay relative to video: 1ms
    Stream size: 1.38 GiB (16%)
    Title: ENG DTS 5.1
    Language : English
    Default: No
    Forced : No
    
    Text #1
    ID : 4
    Format : PGS
    Muxing mode: zlib
    Codec ID : S_HDMV/PGS
    Codec ID/Info: The same subtitle format used on BDs/HD-DVDs
    Title: PL SUB 3Ddo dialogow niemioeckich
    Language : Polish
    Default: No
    Forced : No
    
    Text #2
    ID : 5
    Format : PGS
    Muxing mode: zlib
    Codec ID : S_HDMV/PGS
    Codec ID/Info: The same subtitle format used on BDs/HD-DVDs
    Title: PL SUB 3D
    Language : Polish
    Default: No
    Forced : No
    
    Text #3
    ID : 6
    Format : VobSub
    Muxing mode: zlib
    Codec ID : S_VOBSUB
    Codec ID/Info: The same subtitle format used on DVDs
    Title: Polish 3D subtitles
    Language : Polish
    Default: No
    Forced : No
    
    Text #4
    ID : 7
    Format : VobSub
    Muxing mode: zlib
    Codec ID : S_VOBSUB
    Codec ID/Info: The same subtitle format used on DVDs
    Title: English 3D subtitles
    Language : English
    Default: No
    Forced : No
    
    Text #5
    ID : 8
    Format : VobSub
    Muxing mode: zlib
    Codec ID : S_VOBSUB
    Codec ID/Info: The same subtitle format used on DVDs
    Title: Spanish 3D subtitles
    Language : Spanish
    Default: No
    Forced : No

    Part 1


    Nazwa pliku: Stalingrad.3D.2013.MULTI.1080p.BluRay.H-OU.x264.DTS.part1.rar
    Rozmiar pliku: 3500,00 MB
    CRC32: 0F6D232F
    Liczba segmentów: 411
    Liczba mirrorów: 8
    Uploader: Leon Zawodowiec
    Upload dla: p2m.net.pl


    Part 2


    Nazwa pliku: Stalingrad.3D.2013.MULTI.1080p.BluRay.H-OU.x264.DTS.part2.rar
    Rozmiar pliku: 3500,00 MB
    CRC32: 262BEE74
    Liczba segmentów: 411
    Liczba mirrorów: 7
    Uploader: Leon Zawodowiec
    Upload dla: p2m.net.pl


    Part 3


    Nazwa pliku: Stalingrad.3D.2013.MULTI.1080p.BluRay.H-OU.x264.DTS.part3.rar
    Rozmiar pliku: 2796,94 MB
    CRC32: 8EA5AFED
    Liczba segmentów: 329
    Liczba mirrorów: 7
    Uploader: Leon Zawodowiec
    Upload dla: p2m.net.pl




    Part 1


    Pokaż HC


     
    Wszystko w porządku
    Zakończenie sprawdzania segmentów: 2014-06-03 12:42:38


    Part 2


    Pokaż HC


     
    Wszystko w porządku
    Zakończenie sprawdzania segmentów: 2014-06-03 12:40:17


    Part 3


    Pokaż HC


     
    Wszystko w porządku
    Zakończenie sprawdzania segmentów: 2014-06-03 12:46:14
    bodziosol




    Ostatnio edytowane przez bodziosol ; 3.06.2014 o 12:48




  2. Léon upija się na koszt 4 osób:

    astra1 (31.07.2015), cezar116  (13.06.2014), Lewis (16.06.2014), W (3.06.2014)

Zakładki

Zakładki

Uprawnienia

  • Nie możesz zakładać nowych tematów
  • Nie możesz pisać wiadomości
  • Nie możesz dodawać załączników
  • Nie możesz edytować swoich postów
  •  
  • BB Code jest Włączony
  • EmotikonyWłączony
  • [IMG] kod jest Włączony
  • [VIDEO] code is Włączony
  • HTML jest Wyłączony
  • Trackbacki : Wyłączony
  • Pingbacki : Wyłączony
  • Refbacki : Włączony