Pokaż wyniki od 1 do 3 z 3
  1. #1
    Professional Uploader Avatar Léon
    Dołączył
    16.12.2013
    Skąd
    Paryż
    Postów
    5 411
    Postawił
    33
    Piwa otrzymane
    16 402 (4 968)

    OK LEGOŸ PRZYGODA 3D | 2014 [MULTi][H-SBS][1080p][BluRay]


    LEGOŸ PRZYGODA (2014)
    The Lego Movie







    Ocena: 7,4/10
    Produkcja: Australia, Dania, USA,
    Gatunek: Animacja, Komedia, Akcja,
    Światowa Premiera: 2014-02-01
    Polska Premiera: 2014-02-07
    Reżyseria: Phil LordChristopher Miller
    Zdjęcia: Barry Peterson , Pablo Plaisted
    Scenariusz: Phil LordChristopher Miller
    Muzyka: Mark Mothersbaugh
    Czas trwania: 1 godz. 40 min.
    Dystrybucja: Warner Bros. Entertainment Polska Sp. z o. o.
    O filmie: LEGOŽ PRZYGODA (2014) - Filmweb





    Chris Pratt - Emmet Brickowoski
    Will Ferrell - Lord Biznes / Prezydent Biznes / Wszechwiedzący z góry
    Elizabeth Banks - Wyldstyle / Lucy
    Will Arnett - Batman / Bruce Wayne





    Pierwszy pełnometrażowy film kinowy w wersji 3D, przedstawiający przygody postaci ze świata klocków LEGO. Opowiada historię Emmeta, zwyczajnej, niewychylającej się i zupełnie przeciętnej minifigurki LEGO, którą przypadkowo wzięto za bardzo niezwykłą postać, stanowiącą klucz do ocalenia całego świata. W ten sposób Emmet dołącza do niesamowitej drużyny, która ma do wykonania pełną przygód i niebezpieczeństw misję powstrzymania złowrogiego tyrana – misję, do której Emmet jest kompletnie i przezabawnie nieprzygotowany.









    Kod:
    Format : Matroska
    Format version : Version 4 / Version 2
    File size: 8.09 GiB
    Duration : 1h 40mn
    Overall bit rate : 11.5 Mbps
    Encoded date : UTC 2014-06-06 16:17:54
    Writing application: mkvmerge v6.7.0 ('Back to the Ground') 32bit built on Jan8 2014 15:03:17
    Writing library: libebml v1.3.0 + libmatroska v1.4.1
    
    Video
    ID : 1
    Format : AVC
    Format/Info: Advanced Video Codec
    Format profile : [email protected]
    MultiView_Count: 2
    MultiView_Layout : Side by Side (left eye first)
    Format settings, CABAC : Yes
    Format settings, ReFrames: 4 frames
    Codec ID : V_MPEG4/ISO/AVC
    Duration : 1h 40mn
    Bit rate : 8 242 Kbps
    Width: 1 920 pixels
    Height : 1 080 pixels
    Display aspect ratio : 16:9
    Frame rate mode: Constant
    Frame rate : 23.976 fps
    Color space: YUV
    Chroma subsampling : 4:2:0
    Bit depth: 8 bits
    Scan type: Progressive
    Bits/(Pixel*Frame) : 0.166
    Stream size: 5.79 GiB (72%)
    Title: FILM
    Writing library: x264 
    
    Language : English
    Default: Yes
    Forced : No
    
    Audio #1
    ID : 2
    Format : AC-3
    Format/Info: Audio Coding 3
    Mode extension : CM (complete main)
    Format settings, Endianness: Big
    Codec ID : A_AC3
    Duration : 1h 40mn
    Bit rate mode: Constant
    Bit rate : 640 Kbps
    Channel(s) : 6 channels
    Channel positions: Front: L C R, Side: L R, LFE
    Sampling rate: 48.0 KHz
    Bit depth: 16 bits
    Compression mode : Lossy
    Stream size: 460 MiB (6%)
    Title: PL AUDIO DUB5.1
    Language : Polish
    Default: Yes
    Forced : No
    
    Audio #2
    ID : 3
    Format : DTS
    Format/Info: Digital Theater Systems
    Mode : 16
    Format settings, Endianness: Big
    Codec ID : A_DTS
    Duration : 1h 40mn
    Bit rate mode: Constant
    Bit rate : 1 509 Kbps
    Channel(s) : 6 channels
    Channel positions: Front: L C R, Side: L R, LFE
    Sampling rate: 48.0 KHz
    Bit depth: 16 bits
    Compression mode : Lossy
    Stream size: 1.06 GiB (13%)
    Title: English DTS 5.1
    Language : English
    Default: No
    Forced : No
    
    Audio #3
    ID : 4
    Format : AC-3
    Format/Info: Audio Coding 3
    Mode extension : CM (complete main)
    Format settings, Endianness: Big
    Codec ID : A_AC3
    Duration : 1h 40mn
    Bit rate mode: Constant
    Bit rate : 640 Kbps
    Channel(s) : 6 channels
    Channel positions: Front: L C R, Side: L R, LFE
    Sampling rate: 48.0 KHz
    Bit depth: 16 bits
    Compression mode : Lossy
    Stream size: 460 MiB (6%)
    Title: ENG AC3 5.1
    Language : English
    Default: No
    Forced : No
    
    Audio #4
    ID : 5
    Format : AC-3
    Format/Info: Audio Coding 3
    Mode extension : CM (complete main)
    Format settings, Endianness: Big
    Codec ID : A_AC3
    Duration : 1h 40mn
    Bit rate mode: Constant
    Bit rate : 256 Kbps
    Channel(s) : 2 channels
    Channel positions: Front: L R
    Sampling rate: 48.0 KHz
    Bit depth: 16 bits
    Compression mode : Lossy
    Stream size: 184 MiB (2%)
    Title: PL DUB 2.0
    Language : Polish
    Default: No
    Forced : No
    
    Text #1
    ID : 6
    Format : PGS
    Muxing mode: zlib
    Codec ID : S_HDMV/PGS
    Codec ID/Info: The same subtitle format used on BDs/HD-DVDs
    Title: PL SUB 3D HSBS
    Language : Polish
    Default: No
    Forced : No
    
    Text #2
    ID : 7
    Format : VobSub
    Muxing mode: zlib
    Codec ID : S_VOBSUB
    Codec ID/Info: The same subtitle format used on DVDs
    Title: English (3D PGS)
    Language : English
    Default: No
    Forced : No
    
    Menu

    Part 1


    Nazwa pliku: The.Lego.Movie.2014.3D.MULTI.BluRay.H-SBS.1080p.x264.DTS.part1.rar
    Rozmiar pliku: 3500,00 MB
    CRC32: EC67F445
    Liczba segmentów: 414
    Liczba mirrorów: 8
    Uploader: Leon Zawodowiec
    Upload dla: p2m.net.pl


    Part 2


    Nazwa pliku: The.Lego.Movie.2014.3D.MULTI.BluRay.H-SBS.1080p.x264.DTS.part2.rar
    Rozmiar pliku: 3500,00 MB
    CRC32: 3D274CAF
    Liczba segmentów: 414
    Liczba mirrorów: 8
    Uploader: Leon Zawodowiec
    Upload dla: p2m.net.pl


    Part 3


    Nazwa pliku: The.Lego.Movie.2014.3D.MULTI.BluRay.H-SBS.1080p.x264.DTS.part3.rar
    Rozmiar pliku: 1980,84 MB
    CRC32: 136FF889
    Liczba segmentów: 233
    Liczba mirrorów: 8
    Uploader: Leon Zawodowiec
    Upload dla: p2m.net.pl




    Part 1


    Pokaż HC


     
    Wszystko w porządku
    Zakończenie sprawdzania segmentów: 2014-06-07 14:30:59


    Part 2


    Pokaż HC


     
    Wszystko w porządku
    Zakończenie sprawdzania segmentów: 2014-06-07 14:35:14



    Part 3


    Pokaż HC


     
    Wszystko w porządku
    Zakończenie sprawdzania segmentów: 2014-06-07 14:22:32
    bodziosol





    Ostatnio edytowane przez bodziosol ; 7.06.2014 o 14:39




  2. Léon upija się na koszt 4 osób:

    a360 (21.01.2015), cezar116  (24.06.2014), krzych278 (28.10.2014), W (8.06.2014)

  3. #2
    Member
    Dołączył
    20.05.2007
    Postów
    18
    Postawił
    0
    Piwa otrzymane
    17 (14)

    Domyślnie

    nie wiem co jest z 1 partem zacina się na 56% plik 234 się na okrągło ściąga. proszę o pomoc.

  4. Stolas upija się na koszt:

    W (1.07.2014)

  5. #3
    Teh wizard
    Avatar Gandalf
    Dołączył
    25.10.2007
    Skąd
    wiocha4ever :)
    Postów
    320
    Postawił
    132
    Piwa otrzymane
    471 (242)

    Domyślnie

    Próbowałeś ściągnąć ten part z różnych skrzynek? Jaki błąd się wyświetla?


  6. Gandalf upija się na koszt:

    W (1.07.2014)

Zakładki

Zakładki

Uprawnienia

  • Nie możesz zakładać nowych tematów
  • Nie możesz pisać wiadomości
  • Nie możesz dodawać załączników
  • Nie możesz edytować swoich postów
  •  
  • BB Code jest Włączony
  • EmotikonyWłączony
  • [IMG] kod jest Włączony
  • [VIDEO] code is Włączony
  • HTML jest Wyłączony
  • Trackbacki : Wyłączony
  • Pingbacki : Wyłączony
  • Refbacki : Włączony