Pokaż wyniki od 1 do 4 z 4
  1. #1
    Professional Uploader Avatar Léon
    Dołączył
    16.12.2013
    Skąd
    Paryż
    Postów
    5 411
    Postawił
    33
    Piwa otrzymane
    16 402 (4 968)

    OK 300: Początek imperium 3D | 2014 [1080p][BluRay][H-SBS]


    300: Początek imperium (2014)
    300: Rise of an Empire







    Ocena: 6,4/10
    Produkcja: USA,
    Gatunek: Dramat, Akcja,
    Światowa Premiera: 2014-03-05
    Polska Premiera: 2014-03-07
    Reżyseria: Noam Murro
    Zdjęcia: Simon Duggan
    Scenariusz: Kurt JohnstadZack Snyder
    Muzyka: Junkie XL
    Czas trwania: 1 godz. 42 min.
    Dystrybucja: Warner Bros. Entertainment Polska Sp. z o. o.
    O filmie: 300: Początek imperium (2014) - Filmweb





    Sullivan Stapleton - Temistokles
    Eva Green - Artemizja
    Lena Headey - Królowa Gorgo
    Hans Matheson - Aesyklos





    Film "300: Początek imperium" na podstawie najnowszej powieści graficznej Franka Millera pt: "Kserkses", nakręcony w stylu hitu kinowego "300", to kolejny rozdział epickiej sagi opowiadający — tym razem w scenerii bitwy morskiej — historię greckiego generała Temistoklesa, który próbuje zjednoczyć Grecję, idąc na bitwę, która zmieni bieg wojny. "300: Początek imperium" ukazuje losy Temistoklesa stającego przeciwko wielkiej inwazji wojsk perskich, którymi dowodzą Kserkses,[span class="fullText hide"], śmiertelnik obdarowany boskimi siłami, oraz Artemizja, mściwa dowódczyni perskiej floty morskiej.









    Kod:
    Format : Matroska
    Format version : Version 4 / Version 2
    File size: 11.7 GiB
    Duration : 1h 42mn
    Overall bit rate : 16.3 Mbps
    
    Encoded date : UTC 2014-06-06 05:15:02
    Writing application: mkvmerge v6.9.1 ('Blue Panther') 32bit built on Apr 18 2014 18:15:44
    Writing library: libebml v1.3.0 + libmatroska v1.4.1
    
    Video
    ID : 1
    Format : AVC
    Format/Info: Advanced Video Codec
    Format profile : [email protected]
    Format settings, CABAC : Yes
    Format settings, ReFrames: 4 frames
    Format settings, GOP : M=7, N=9
    Codec ID : V_MPEG4/ISO/AVC
    Duration : 1h 42mn
    Bit rate : 14.5 Mbps
    Width: 1 920 pixels
    Height : 1 080 pixels
    Display aspect ratio : 16:9
    Frame rate mode: Constant
    Frame rate : 23.976 fps
    Color space: YUV
    Chroma subsampling : 4:2:0
    Bit depth: 8 bits
    Scan type: Progressive
    Bits/(Pixel*Frame) : 0.292
    Stream size: 10.4 GiB (89%)
    Writing library: x264 
    Default: Yes
    Forced : No
    
    Audio
    ID : 2
    Format : DTS
    Format/Info: Digital Theater Systems
    Mode : 16
    Format settings, Endianness: Big
    Codec ID : A_DTS
    Duration : 1h 42mn
    Bit rate mode: Constant
    Bit rate : 1 509 Kbps
    Channel(s) : 6 channels
    Channel positions: Front: L C R, Side: L R, LFE
    Sampling rate: 48.0 KHz
    Bit depth: 24 bits
    Compression mode : Lossy
    Stream size: 1.08 GiB (9%)
    Language : English
    Default: Yes
    Forced : No
    
    Text #1
    ID : 3
    Format : PGS
    Muxing mode: zlib
    Codec ID : S_HDMV/PGS
    Codec ID/Info: The same subtitle format used on BDs/HD-DVDs
    Language : English
    Default: Yes
    Forced : No
    
    Text #2
    ID : 4
    Format : PGS
    Muxing mode: zlib
    Codec ID : S_HDMV/PGS
    Codec ID/Info: The same subtitle format used on BDs/HD-DVDs
    Language : French
    Default: No
    Forced : No
    
    Text #3
    ID : 5
    Format : PGS
    Muxing mode: zlib
    Codec ID : S_HDMV/PGS
    Codec ID/Info: The same subtitle format used on BDs/HD-DVDs
    Language : Spanish
    Default: No
    Forced : No
    
    Text #4
    ID : 6
    Format : PGS
    Muxing mode: zlib
    Codec ID : S_HDMV/PGS
    Codec ID/Info: The same subtitle format used on BDs/HD-DVDs
    Language : Portuguese
    Default: No
    Forced : No

    Part 1


    Nazwa pliku: 300.Rise.of.an.Empire.2014.1080p.BluRay.Half-SBS.DTS.part1.rar
    Rozmiar pliku: 3950,00 MB
    CRC32: 4DB783DB
    Liczba segmentów: 465
    Liczba mirrorów: 8
    Uploader: Leon Zawodowiec
    Upload dla: p2m.net.pl


    Part 2


    Nazwa pliku: 300.Rise.of.an.Empire.2014.1080p.BluRay.Half-SBS.DTS.part2.rar
    Rozmiar pliku: 3950,00 MB
    CRC32: 02F1102F
    Liczba segmentów: 468
    Liczba mirrorów: 8
    Uploader: Leon Zawodowiec
    Upload dla: p2m.net.pl


    Part 3


    Nazwa pliku: 300.Rise.of.an.Empire.2014.1080p.BluRay.Half-SBS.DTS.part3.rar
    Rozmiar pliku: 3950,00 MB
    CRC32: 2BAA6574
    Liczba segmentów: 464
    Liczba mirrorów: 8
    Uploader: Leon Zawodowiec
    Upload dla: p2m.net.pl


    Part 4


    Nazwa pliku: 300.Rise.of.an.Empire.2014.1080p.BluRay.Half-SBS.DTS.part4.rar
    Rozmiar pliku: 994,99 MB
    CRC32: BA473ECA
    Liczba segmentów: 119
    Liczba mirrorów: 8
    Uploader: Leon Zawodowiec
    Upload dla: p2m.net.pl




    Part 1


    Pokaż HC

     
    Wszystko w porządku
    Zakończenie sprawdzania segmentów: 2014-06-08 22:23:38


    Part 2


    Pokaż HC

     
    Wszystko w porządku
    Zakończenie sprawdzania segmentów: 2014-06-08 22:24:08


    Part 3


    Pokaż HC

     
    Wszystko w porządku
    Zakończenie sprawdzania segmentów: 2014-06-08 22:24:33


    Part 4


    Pokaż HC

     
    Wszystko w porządku
    Zakończenie sprawdzania segmentów: 2014-06-08 22:24:31





  2. Léon upija się na koszt 4 osób:

    cezar116  (13.06.2014), flyhaba (16.06.2014), Silver17 (12.06.2014), W (8.06.2014)

  3. #2
    Member
    Dołączył
    4.01.2014
    Postów
    39
    Postawił
    46
    Piwa otrzymane
    28 (25)

    Domyślnie

    Cześć, pobierałem dwa razy i mam jakieś błędy w pierwszym i ostatnim pliku. Użycie danych naprawczych nie pomogło. Może ktoś to sprawdzić ?

  4. Silver17 upija się na koszt:

    W (14.06.2014)

  5. #3
    Donator
    Dołączył
    3.03.2014
    Wiek
    31
    Postów
    1
    Postawił
    0
    Piwa otrzymane
    1 (1)

    Domyślnie

    witam ja mam takie pytanko czy sa juz napisy polskie w filmie

  6. luki8850 upija się na koszt:

    W (15.06.2014)

  7. #4
    Master
    Dołączył
    13.10.2006
    Postów
    194
    Postawił
    111
    Piwa otrzymane
    363 (259)

    Domyślnie

    Cytat Napisał Silver17 Zobacz post
    Cześć, pobierałem dwa razy i mam jakieś błędy w pierwszym i ostatnim pliku. Użycie danych naprawczych nie pomogło. Może ktoś to sprawdzić ?
    Cytat Napisał luki8850 Zobacz post
    witam ja mam takie pytanko czy sa juz napisy polskie w filmie
    Pojawi sie wersja MULTi

  8. Black upija się na koszt:

    W (15.06.2014)

Zakładki

Zakładki

Uprawnienia

  • Nie możesz zakładać nowych tematów
  • Nie możesz pisać wiadomości
  • Nie możesz dodawać załączników
  • Nie możesz edytować swoich postów
  •  
  • BB Code jest Włączony
  • EmotikonyWłączony
  • [IMG] kod jest Włączony
  • [VIDEO] code is Włączony
  • HTML jest Wyłączony
  • Trackbacki : Wyłączony
  • Pingbacki : Wyłączony
  • Refbacki : Włączony