Pokaż wyniki od 1 do 1 z 1
  1. #1
    Professional Uploader Avatar Léon
    Dołączył
    16.12.2013
    Skąd
    Paryż
    Postów
    5 411
    Postawił
    33
    Piwa otrzymane
    16 402 (4 968)

    OK Koala Kid, nieustraszony miś 3D | 2012 [MULTi][1080p][H-OU][BluRay]


    Koala Kid, nieustraszony miś (2012)
    The Outback







    Ocena: 5,2/10
    Produkcja: USA, Korea Południowa,
    Gatunek: Animacja, Familijny, Przygodowy,
    Światowa Premiera: 2012-01-12
    Polska Premiera: b/d
    Reżyseria: Kyung Ho Lee
    Zdjęcia: b/d
    Scenariusz: Scott ClevengerChris DenkTimothy Wayne Peternel
    Muzyka:
    Czas trwania: 1 godz. 25 min.
    Dystrybucja: b/d
    O filmie: Koala Kid, nieustraszony miś (2012) - Filmweb





    Tim Curry - Czarny Ząb
    Yvonne Strahovski - Miranda
    Alan Cumming - Bagno
    Rob Schneider - Johnny





    Johnny jest misiem koala, który wspólnie z diabłem tasmańskim o imieniu Hamish i małpką wabiącą się Higgens, przypadkiem kończy podróż na australijskiej pustyni.
    Próbując powrócić na właściwą drogę, są świadkiem polowania psów dingo na wielkoucha, którego z opresji ratuje kangur, armia wombatów i utalentowana w rzutach bumerangiem koala o imieniu Miranda. Kiedy sęp Borys donosi, ze gigantyczny krokodyl Bog ma zamiar zająć okolicę, Johnny ma okazję zaimponować Mirandzie, przeciwstawiając się złowrogiemu krokodylowi, który terroryzuje okolicę.









    Kod:
    Format : Matroska
    Format version : Version 4 / Version 2
    File size: 8.15 GiB
    Duration : 1h 25mn
    Overall bit rate : 13.6 Mbps
    Encoded date : UTC 2014-06-08 21:27:33
    Writing application: mkvmerge v6.7.0 ('Back to the Ground') 32bit built on Jan8 2014 15:03:17
    Writing library: libebml v1.3.0 + libmatroska v1.4.1
    
    Video
    ID : 1
    Format : AVC
    Format/Info: Advanced Video Codec
    Format profile : [email protected]
    Format settings, CABAC : Yes
    Format settings, ReFrames: 4 frames
    Codec ID : V_MPEG4/ISO/AVC
    Duration : 1h 25mn
    Bit rate : 12.5 Mbps
    Width: 1 920 pixels
    Height : 1 080 pixels
    Display aspect ratio : 16:9
    Frame rate mode: Constant
    Frame rate : 23.976 fps
    Color space: YUV
    Chroma subsampling : 4:2:0
    Bit depth: 8 bits
    Scan type: Progressive
    Bits/(Pixel*Frame) : 0.252
    Stream size: 7.49 GiB (92%)
    Title: FILM 3D
    Writing library: x264 
    Language : English
    Default: Yes
    Forced : No
    
    Audio #1
    ID : 2
    Format : AC-3
    Format/Info: Audio Coding 3
    Mode extension : CM (complete main)
    Format settings, Endianness: Big
    Codec ID : A_AC3
    Duration : 1h 25mn
    Bit rate mode: Constant
    Bit rate : 384 Kbps
    Channel(s) : 6 channels
    Channel positions: Front: L C R, Side: L R, LFE
    Sampling rate: 48.0 KHz
    Bit depth: 16 bits
    Compression mode : Lossy
    Stream size: 235 MiB (3%)
    Title: PL AUDIO 5.1
    Language : Polish
    Default: Yes
    Forced : No
    
    Audio #2
    ID : 3
    Format : AC-3
    Format/Info: Audio Coding 3
    Mode extension : CM (complete main)
    Format settings, Endianness: Big
    Codec ID : A_AC3
    Duration : 1h 25mn
    Bit rate mode: Constant
    Bit rate : 448 Kbps
    Channel(s) : 6 channels
    Channel positions: Front: L C R, Side: L R, LFE
    Sampling rate: 48.0 KHz
    Bit depth: 16 bits
    Compression mode : Lossy
    Stream size: 274 MiB (3%)
    Title: ENG AC3 5.1
    Language : English
    Default: No
    Forced : No
    
    Text
    ID : 4
    Format : UTF-8
    Codec ID : S_TEXT/UTF8
    Codec ID/Info: UTF-8 Plain Text
    Title: ENG SUB 2D
    Language : English
    Default: No
    Forced : No

    Part 1


    Nazwa pliku: The Outback.2012.MULTI.1080p.BluRay.H-OU.x264.AC3.part1.rar
    Rozmiar pliku: 3600,00 MB
    CRC32: 6E3F2190
    Liczba segmentów: 424
    Liczba mirrorów: 9
    Uploader: Leon Zawodowiec
    Upload dla: p2m.net.pl


    Part 2


    Nazwa pliku: The Outback.2012.MULTI.1080p.BluRay.H-OU.x264.AC3.part2.rar
    Rozmiar pliku: 3600,00 MB
    CRC32: E566CF95
    Liczba segmentów: 425
    Liczba mirrorów: 9
    Uploader: Leon Zawodowiec
    Upload dla: p2m.net.pl


    Part 3


    Nazwa pliku: The Outback.2012.MULTI.1080p.BluRay.H-OU.x264.AC3.part3.rar
    Rozmiar pliku: 1867,11 MB
    CRC32: F555E3AB
    Liczba segmentów: 221
    Liczba mirrorów: 9
    Uploader: Leon Zawodowiec
    Upload dla: p2m.net.pl




    Part 1


    Pokaż HC


     
    Wszystko w porządku
    Zakończenie sprawdzania segmentów: 2014-06-11 13:22:51


    Part 2


    Pokaż HC


     
    Wszystko w porządku
    Zakończenie sprawdzania segmentów: 2014-06-11 13:20:27


    Part 3


    Pokaż HC


     
    Wszystko w porządku
    Zakończenie sprawdzania segmentów: 2014-06-11 13:20:40
    bodziosol




    Ostatnio edytowane przez bodziosol ; 11.06.2014 o 13:27




  2. Léon upija się na koszt 2 osób:

    cezar116  (14.06.2014), W (11.06.2014)

Zakładki

Zakładki

Uprawnienia

  • Nie możesz zakładać nowych tematów
  • Nie możesz pisać wiadomości
  • Nie możesz dodawać załączników
  • Nie możesz edytować swoich postów
  •  
  • BB Code jest Włączony
  • EmotikonyWłączony
  • [IMG] kod jest Włączony
  • [VIDEO] code is Włączony
  • HTML jest Wyłączony
  • Trackbacki : Wyłączony
  • Pingbacki : Wyłączony
  • Refbacki : Włączony