Pokaż wyniki od 1 do 1 z 1
  1. #1
    Professional Uploader Avatar Léon
    Dołączył
    16.12.2013
    Skąd
    Paryż
    Postów
    5 411
    Postawił
    33
    Piwa otrzymane
    16 402 (4 968)

    OK 300: Początek imperium 3D | 2014 [MULTi][H-SBS][1080p][BluRay]


    300: Początek imperium (2014)
    300: Rise of an Empire







    Ocena: 6,4/10
    Produkcja: USA,
    Gatunek: Dramat, Akcja,
    Światowa Premiera: 2014-03-05
    Polska Premiera: 2014-03-07
    Reżyseria: Noam Murro
    Zdjęcia: Simon Duggan
    Scenariusz: Kurt JohnstadZack Snyder
    Muzyka: Junkie XL
    Czas trwania: 1 godz. 42 min.
    Dystrybucja: Warner Bros. Entertainment Polska Sp. z o. o.
    O filmie: 300: Początek imperium (2014) - Filmweb





    Sullivan Stapleton - Temistokles
    Eva Green - Artemizja
    Lena Headey - Królowa Gorgo
    Hans Matheson - Aesyklos





    Film "300: Początek imperium" na podstawie najnowszej powieści graficznej Franka Millera pt: "Kserkses", nakręcony w stylu hitu kinowego "300", to kolejny rozdział epickiej sagi opowiadający — tym razem w scenerii bitwy morskiej — historię greckiego generała Temistoklesa, który próbuje zjednoczyć Grecję, idąc na bitwę, która zmieni bieg wojny. "300: Początek imperium" ukazuje losy Temistoklesa stającego przeciwko wielkiej inwazji wojsk perskich, którymi dowodzą Kserkses,[span class="fullText hide"], śmiertelnik obdarowany boskimi siłami, oraz Artemizja, mściwa dowódczyni perskiej floty morskiej.









    Kod:
    Format : Matroska
    Format version : Version 4 / Version 2
    File size: 12.6 GiB
    Duration : 1h 42mn
    Overall bit rate : 17.6 Mbps
    Encoded date : UTC 2014-06-11 18:05:32
    Writing application: mkvmerge v6.7.0 ('Back to the Ground') 32bit built on Jan8 2014 15:03:17
    Writing library: libebml v1.3.0 + libmatroska v1.4.1
    
    Video
    ID : 1
    Format : AVC
    Format/Info: Advanced Video Codec
    Format profile : [email protected]
    Format settings, CABAC : Yes
    Format settings, ReFrames: 4 frames
    Format settings, GOP : M=7, N=9
    Codec ID : V_MPEG4/ISO/AVC
    Duration : 1h 42mn
    Bit rate : 14.5 Mbps
    Width: 1 920 pixels
    Height : 1 080 pixels
    Display aspect ratio : 16:9
    Frame rate mode: Constant
    Frame rate : 23.976 fps
    Color space: YUV
    Chroma subsampling : 4:2:0
    Bit depth: 8 bits
    Scan type: Progressive
    Bits/(Pixel*Frame) : 0.291
    Stream size: 10.4 GiB (82%)
    Title: FILM
    Writing library: x264 
    Language : English
    Default: Yes
    Forced : No
    
    Audio #1
    ID : 2
    Format : AC-3
    Format/Info: Audio Coding 3
    Mode extension : CM (complete main)
    Format settings, Endianness: Big
    Codec ID : A_AC3
    Duration : 1h 42mn
    Bit rate mode: Constant
    Bit rate : 640 Kbps
    Channel(s) : 6 channels
    Channel positions: Front: L C R, Side: L R, LFE
    Sampling rate: 48.0 KHz
    Bit depth: 16 bits
    Compression mode : Lossy
    Stream size: 470 MiB (4%)
    Title: PL AUDIO 5.1
    Language : Polish
    Default: Yes
    Forced : No
    
    Audio #2
    ID : 3
    Format : DTS
    Format/Info: Digital Theater Systems
    Mode : 16
    Format settings, Endianness: Big
    Codec ID : A_DTS
    Duration : 1h 42mn
    Bit rate mode: Constant
    Bit rate : 1 509 Kbps
    Channel(s) : 6 channels
    Channel positions: Front: L C R, Side: L R, LFE
    Sampling rate: 48.0 KHz
    Bit depth: 24 bits
    Compression mode : Lossy
    Stream size: 1.08 GiB (9%)
    Title: ENG DTS 5.1
    Language : English
    Default: No
    Forced : No
    
    Audio #3
    ID : 4
    Format : AC-3
    Format/Info: Audio Coding 3
    Mode extension : CM (complete main)
    Format settings, Endianness: Big
    Codec ID : A_AC3
    Duration : 1h 42mn
    Bit rate mode: Constant
    Bit rate : 640 Kbps
    Channel(s) : 6 channels
    Channel positions: Front: L C R, Side: L R, LFE
    Sampling rate: 48.0 KHz
    Bit depth: 16 bits
    Compression mode : Lossy
    Stream size: 470 MiB (4%)
    Title: ENG AC3 5.1
    Language : English
    Default: No
    Forced : No
    
    Text #1
    ID : 5
    Format : PGS
    Muxing mode: zlib
    Codec ID : S_HDMV/PGS
    Codec ID/Info: The same subtitle format used on BDs/HD-DVDs
    Title: PL SUB 3D H-SBS
    Language : Polish
    Default: No
    Forced : No
    
    Text #2
    ID : 6
    Format : UTF-8
    Codec ID : S_TEXT/UTF8
    Codec ID/Info: UTF-8 Plain Text
    Title: PL SUB 2D
    Language : Polish
    Default: No
    Forced : No
    
    Text #3
    ID : 7
    Format : PGS
    Muxing mode: zlib
    Codec ID : S_HDMV/PGS
    Codec ID/Info: The same subtitle format used on BDs/HD-DVDs
    Title: ENG SUB
    Language : English
    Default: No
    Forced : No
    
    Text #4
    ID : 8
    Format : PGS
    Muxing mode: zlib
    Codec ID : S_HDMV/PGS
    Codec ID/Info: The same subtitle format used on BDs/HD-DVDs
    Title: FRE SUB
    Language : French
    Default: No
    Forced : No
    
    Text #5
    ID : 9
    Format : PGS
    Muxing mode: zlib
    Codec ID : S_HDMV/PGS
    Codec ID/Info: The same subtitle format used on BDs/HD-DVDs
    Title: SPA SUB
    Language : Spanish
    Default: No
    Forced : No

    Part 1


    Nazwa pliku: 300.Rise.Of.An.Empire.2014.3D.MULTI.BluRay.1080p.HSBS.x264.DTS.part1.rar
    Rozmiar pliku: 3950,00 MB
    CRC32: 3B45EFAA
    Liczba segmentów: 462
    Liczba mirrorów: 9
    Uploader: Leon Zawodowiec
    Upload dla: p2m.net.pl


    Part 2


    Nazwa pliku: 300.Rise.Of.An.Empire.2014.3D.MULTI.BluRay.1080p.HSBS.x264.DTS.part2.rar
    Rozmiar pliku: 3950,00 MB
    CRC32: D3C4BBBB
    Liczba segmentów: 464
    Liczba mirrorów: 8
    Uploader: Leon Zawodowiec
    Upload dla: p2m.net.pl


    Part 3


    Nazwa pliku: 300.Rise.Of.An.Empire.2014.3D.MULTI.BluRay.1080p.HSBS.x264.DTS.part3.rar
    Rozmiar pliku: 3950,00 MB
    CRC32: AB9B481B
    Liczba segmentów: 465
    Liczba mirrorów: 8
    Uploader: Leon Zawodowiec
    Upload dla: p2m.net.pl


    Part 4


    Nazwa pliku: 300.Rise.Of.An.Empire.2014.3D.MULTI.BluRay.1080p.HSBS.x264.DTS.part4.rar
    Rozmiar pliku: 2039,43 MB
    CRC32: EDAF4297
    Liczba segmentów: 241
    Liczba mirrorów: 9
    Uploader: Leon Zawodowiec
    Upload dla: p2m.net.pl




    Part 1


    Pokaż HC


     
    Wszystko w porządku
    Zakończenie sprawdzania segmentów: 2014-06-17 17:23:21


    Part 2


    Pokaż HC


     
    Wszystko w porządku
    Zakończenie sprawdzania segmentów: 2014-06-17 17:21:27


    Part 3


    Pokaż HC


     
    Wszystko w porządku
    Zakończenie sprawdzania segmentów: 2014-06-17 17:21:12


    Part 4


    Pokaż HC


     
    Wszystko w porządku
    Zakończenie sprawdzania segmentów: 2014-06-17 17:17:32
    bodziosol




    Ostatnio edytowane przez bodziosol ; 17.06.2014 o 17:27




  2. Léon upija się na koszt 6 osób:

    astra1 (14.11.2014), cosm095 (23.06.2014), frikol (12.11.2014), paweles (29.12.2014), Rawka85 (29.07.2014), W (17.06.2014)

Zakładki

Zakładki

Uprawnienia

  • Nie możesz zakładać nowych tematów
  • Nie możesz pisać wiadomości
  • Nie możesz dodawać załączników
  • Nie możesz edytować swoich postów
  •  
  • BB Code jest Włączony
  • EmotikonyWłączony
  • [IMG] kod jest Włączony
  • [VIDEO] code is Włączony
  • HTML jest Wyłączony
  • Trackbacki : Wyłączony
  • Pingbacki : Wyłączony
  • Refbacki : Włączony