Pokaż wyniki od 1 do 1 z 1
  1. #1
    Professional Uploader Avatar Léon
    Dołączył
    16.12.2013
    Skąd
    Paryż
    Postów
    5 411
    Postawił
    33
    Piwa otrzymane
    16 402 (4 968)

    OK Turbo 3D | 2013 [MULTi][1080p][BluRay][H-SBS]


    Turbo (2013)
    b/d







    Ocena: 6,6/10
    Produkcja: USA,
    Gatunek: Animacja, Familijny, Komedia,
    Światowa Premiera: 2013-07-17
    Polska Premiera: 2013-09-27
    Reżyseria: David Soren
    Zdjęcia: Chris Stover
    Scenariusz: Darren LemkeDavid SorenRobert D. Siegel
    Muzyka: Henry Jackman
    Czas trwania: 1 godz. 36 min.
    Dystrybucja: Imperial - Cinepix
    O filmie: Turbo (2013) - Filmweb





    Ryan Reynolds - Turbo
    Paul Giamatti - Chet
    Michael Peńa - Tito
    Samuel L. Jackson - Whiplash





    Twórcy hitów "Madagaskar" i "Kung Fu Panda" zrealizowali najwspanialszą - i najśmieszniejszą - przygodę roku! Razem z ekipą cwanych ślimaków i nowymi ludzkimi przyjaciółmi, ciapowaty i powolny Turbo, podejmuje największe wyzwanie w swym ślimaczym życiu, aby spełnić marzenia.









    Kod:
    Format : Matroska
    Format version : Version 4 / Version 2
    File size: 7.62 GiB
    Duration : 1h 35mn
    Overall bit rate : 11.4 Mbps
    
    Encoded date : UTC 2013-12-13 17:25:40
    Writing application: mkvmerge v6.5.0 ('Isn't she lovely') built on Oct 20 2013 12:50:05
    Writing library: libebml v1.3.0 + libmatroska v1.4.1
    
    Video
    ID : 1
    Format : AVC
    Format/Info: Advanced Video Codec
    Format profile : [email protected]
    MultiView_Count: 2
    MultiView_Layout : Side by Side (left eye first)
    Format settings, CABAC : Yes
    Format settings, ReFrames: 4 frames
    Codec ID : V_MPEG4/ISO/AVC
    Duration : 1h 35mn
    Bit rate : 9 215 Kbps
    Width: 1 920 pixels
    Height : 1 080 pixels
    Display aspect ratio : 16:9
    Frame rate mode: Constant
    Frame rate : 23.976 fps
    Color space: YUV
    Chroma subsampling : 4:2:0
    Bit depth: 8 bits
    Scan type: Progressive
    Bits/(Pixel*Frame) : 0.185
    Stream size: 6.16 GiB (81%)
    Title: FILM
    Language : English
    Default: Yes
    Forced : No
    
    Audio #1
    ID : 2
    Format : AC-3
    Format/Info: Audio Coding 3
    Mode extension : CM (complete main)
    Format settings, Endianness: Big
    Codec ID : A_AC3
    Duration : 1h 35mn
    Bit rate mode: Constant
    Bit rate : 448 Kbps
    Channel(s) : 6 channels
    Channel positions: Front: L C R, Side: L R, LFE
    Sampling rate: 48.0 KHz
    Bit depth: 16 bits
    Compression mode : Lossy
    Stream size: 307 MiB (4%)
    Title: PL AUDIO
    Language : Polish
    Default: Yes
    Forced : No
    
    Audio #2
    ID : 3
    Format : DTS
    Format/Info: Digital Theater Systems
    Format profile : ES
    Mode : 16
    Format settings, Endianness: Big
    Codec ID : A_DTS
    Duration : 1h 35mn
    Bit rate mode: Constant
    Bit rate : 1 509 Kbps
    Channel(s) : 6 channels
    Channel positions: Front: L C R, Side: L R, LFE
    Sampling rate: 48.0 KHz
    Bit depth: 24 bits
    Compression mode : Lossy
    Stream size: 1.01 GiB (13%)
    Title: ENG AUDIO
    Language : English
    Default: No
    Forced : No
    
    Text
    ID : 4
    Format : PGS
    Muxing mode: zlib
    Codec ID : S_HDMV/PGS
    Codec ID/Info: The same subtitle format used on BDs/HD-DVDs
    Title: PL SUB 3D
    Language : Polish
    Default: No
    Forced : No

    Part 1


    Nazwa pliku: Turbo.3D.2013.MULTI.1080p.BluRay.Half-SBS.x264.DTS.part1.rar
    Rozmiar pliku: 3650,00 MB
    CRC32: 232ABCDE
    Liczba segmentów: 430
    Liczba mirrorów: 10
    Uploader: Leon Zawodowiec
    Upload dla: p2m.net.pl


    Part 2


    Nazwa pliku: Turbo.3D.2013.MULTI.1080p.BluRay.Half-SBS.x264.DTS.part2.rar
    Rozmiar pliku: 3650,00 MB
    CRC32: B90EC82E
    Liczba segmentów: 431
    Liczba mirrorów: 8
    Uploader: Leon Zawodowiec
    Upload dla: p2m.net.pl


    Part 3


    Nazwa pliku: Turbo.3D.2013.MULTI.1080p.BluRay.Half-SBS.x264.DTS.part3.rar
    Rozmiar pliku: 1116,71 MB
    CRC32: 93253139
    Liczba segmentów: 133
    Liczba mirrorów: 10
    Uploader: Leon Zawodowiec
    Upload dla: p2m.net.pl




    Part 1


    Pokaż HC


     
    Braki:
    Mirror: 6 - gazeta.pl
    [243,246,247,248,249,250,251,252,253,254,255,256,257,258,259,260,261,262,263,264, 265,266,267,268,269,270,271,272,273,274,275,276,277,278,279,280,281,282,283,284, 285,286,287,288,289,290,291,292,293,294,295,296,297,298,299,300,301,302,303,304, 305,306,307,308,309,310,311,312,313,314,315,316,317,318,319,320,321,322,323,324, 325,326,327,328,329,330,331,332,333,334,335,336,337,338,339,340,341,342,343,344, 345,346,347,348,349,350,351,352,353,354,355,356,357,358,359,360,361,362,363,364, 365,366,367,368,369,370,371,372,373,374,375,376,377,378,379,380,381,382,383,384, 385,386,387,388,389,390,391,392,393,394,395,396,397,398,399,400,401,402,403,404, 405,406,407,408,409,410,411,412,413,414,415,416,417,418,419,420,421,422,423,424, 425,426,427,428,429,430]
    Zakończenie sprawdzania segmentów: 2014-06-29 14:39:48


    Part 2


    Pokaż HC


     
    Wszystko w porządku
    Zakończenie sprawdzania segmentów: 2014-06-29 14:30:29


    Part 3


    Pokaż HC


     
    Wszystko w porządku
    Zakończenie sprawdzania segmentów: 2014-06-29 14:30:33
    bodziosol




    Ostatnio edytowane przez bodziosol ; 29.06.2014 o 14:44




  2. Léon upija się na koszt:

    W (28.06.2014)

Zakładki

Zakładki

Uprawnienia

  • Nie możesz zakładać nowych tematów
  • Nie możesz pisać wiadomości
  • Nie możesz dodawać załączników
  • Nie możesz edytować swoich postów
  •  
  • BB Code jest Włączony
  • EmotikonyWłączony
  • [IMG] kod jest Włączony
  • [VIDEO] code is Włączony
  • HTML jest Wyłączony
  • Trackbacki : Wyłączony
  • Pingbacki : Wyłączony
  • Refbacki : Włączony