Pokaż wyniki od 1 do 1 z 1
  1. #1
    Professional Uploader Avatar Léon
    Dołączył
    16.12.2013
    Skąd
    Paryż
    Postów
    5 411
    Postawił
    33
    Piwa otrzymane
    16 402 (4 968)

    OK Nurse 3-D | 2013 [MULTi][H-OU][1080p][BluRay]


    Nurse 3-D (2013)







    Ocena: 4,4/10
    Produkcja: USA,
    Gatunek: Thriller,
    Światowa Premiera: 2013-09-28
    Polska Premiera: b/d
    Reżyseria: Douglas Aarniokoski
    Zdjęcia: Boris Mojsovski
    Scenariusz: David LougheryDouglas Aarniokoski
    Muzyka: Anton Sanko
    Czas trwania: 1 godz. 24 min.
    Dystrybucja: Kino Świat
    O filmie: Nurse 3-D (2013) - Filmweb





    Katrina Bowden - Danni
    Paz de la Huerta - Abby Russell
    Corbin Bleu - Steve
    Boris Kodjoe - Detektyw John Rogan





    Za dnia Abby (Paz de la Huerta) pracuje jako pielęgniarka w szpitalu All Saints, gdzie z wielkim oddaniem i poświęceniem towarzyszy pacjentom, którzy nie boją się jej zaufać. W nocy zaś przemienia się nie do poznania. W pełni świadomie i umiejętnie wykorzystuje swoją seksualność, by wabić niewiernych mężczyzn. Tymczasem do szpitalnego personelu dołącza Danni (Katrina Bowden), z którą Abby od razu się zaprzyjaźnia. Relacja ich jednak staje się napięta, kiedy Abby wykazuje coraz większe zainteresowanie koleżanką...









    Kod:
    Format : Matroska
    Format version : Version 4 / Version 2
    File size: 7.87 GiB
    Duration : 1h 23mn
    Overall bit rate : 13.4 Mbps
    Movie name : Медсестра / Nurse 3-D (2013) 3D
    Encoded date : UTC 2014-06-28 00:39:55
    Writing application: mkvmerge v6.7.0 ('Back to the Ground') 32bit built on Jan8 2014 15:03:17
    Writing library: libebml v1.3.0 + libmatroska v1.4.1
    
    Video
    ID : 1
    Format : AVC
    Format/Info: Advanced Video Codec
    Format profile : [email protected]
    Format settings, CABAC : Yes
    Format settings, ReFrames: 4 frames
    Codec ID : V_MPEG4/ISO/AVC
    Duration : 1h 23mn
    Bit rate : 11.4 Mbps
    Width: 1 920 pixels
    Height : 1 080 pixels
    Display aspect ratio : 16:9
    Frame rate mode: Constant
    Frame rate : 23.976 fps
    Color space: YUV
    Chroma subsampling : 4:2:0
    Bit depth: 8 bits
    Scan type: Progressive
    Bits/(Pixel*Frame) : 0.229
    Stream size: 6.68 GiB (85%)
    Title: BDRip by Ash61
    Writing library: x264
    Language : English
    Default: Yes
    Forced : No
    
    Audio #1
    ID : 2
    Format : DTS
    Format/Info: Digital Theater Systems
    Mode : 16
    Format settings, Endianness: Big
    Codec ID : A_DTS
    Duration : 1h 23mn
    Bit rate mode: Constant
    Bit rate : 1 509 Kbps
    Channel(s) : 6 channels
    Channel positions: Front: L C R, Side: L R, LFE
    Sampling rate: 48.0 KHz
    Bit depth: 24 bits
    Compression mode : Lossy
    Stream size: 906 MiB (11%)
    Language : English
    Default: No
    Forced : No
    
    Audio #2
    ID : 4
    Format : AC-3
    Format/Info: Audio Coding 3
    Mode extension : CM (complete main)
    Format settings, Endianness: Big
    Codec ID : A_AC3
    Duration : 1h 23mn
    Bit rate mode: Constant
    Bit rate : 256 Kbps
    Channel(s) : 2 channels
    Channel positions: Front: L R
    Sampling rate: 48.0 KHz
    Bit depth: 16 bits
    Compression mode : Lossy
    Stream size: 154 MiB (2%)
    Default: Yes
    Forced : Yes
    
    Text #1
    ID : 3
    Format : PGS
    Muxing mode: zlib
    Codec ID : S_HDMV/PGS
    Codec ID/Info: The same subtitle format used on BDs/HD-DVDs
    Language : English
    Default: No
    Forced : No
    
    Text #2
    ID : 5
    Format : UTF-8
    Codec ID : S_TEXT/UTF8
    Codec ID/Info: UTF-8 Plain Text
    Default: No
    Forced : No

    Part 1


    Nazwa pliku: Nurse.2013.MULTi.1080p.BluRay.H-OU.1080p.x264.DTS.part1.rar
    Rozmiar pliku: 3700,00 MB
    CRC32: 49A7053B
    Liczba segmentów: 436
    Liczba mirrorów: 10
    Uploader: Leon Zawodowiec
    Upload dla: p2m.net.pl


    Part 2


    Nazwa pliku: Nurse.2013.MULTi.1080p.BluRay.H-OU.1080p.x264.DTS.part2.rar
    Rozmiar pliku: 3700,00 MB
    CRC32: A5A6D10D
    Liczba segmentów: 432
    Liczba mirrorów: 9
    Uploader: Leon Zawodowiec
    Upload dla: p2m.net.pl


    Part 3


    Nazwa pliku: Nurse.2013.MULTi.1080p.BluRay.H-OU.1080p.x264.DTS.part3.rar
    Rozmiar pliku: 1266,44 MB
    CRC32: F7872311
    Liczba segmentów: 150
    Liczba mirrorów: 8
    Uploader: Leon Zawodowiec
    Upload dla: p2m.net.pl




    Part 1


    Pokaż HC


     
    Wszystko w porządku
    Zakończenie sprawdzania segmentów: 2014-06-30 09:29:35


    Part 2


    Pokaż HC


     
    Braki:
    Mirror: 4 - gazeta.pl
    [238,241,242,243,244,245,246,247,248,249,250,251,252,253,254,255,256,257,258,259, 260,261,262,263,264,265,266,267,268,269,270,271,272,273,274,275,276,277,278,279, 280,281,282,283,284,285,286,287,288,289,290,291,292,293,294,295,296,297,298,299, 300,301,302,303,304,305,306,307,308,309,310,311,312,313,314,315,316,317,318,319, 320,321,322,323,324,325,326,327,328,329,330,331,332,333,334,335,336,337,338,339, 340,341,342,343,344,345,346,347,348,349,350,351,352,353,354,355,356,357,358,359, 360,361,362,363,364,365,366,367,368,369,370,371,372,373,374,375,376,377,378,379, 380,381,382,383,384,385,386,387,388,389,390,391,392,393,394,395,396,397,398,399, 400,401,402,403,404,405,406,407,408,409,410,411,412,413,414,415,416,417,418,419, 420,421,422,423,424,425,426,427,428,429,430,431,432]
    Niedziałające mirrory:
    3 - caramail.fr
    Zakończenie sprawdzania segmentów: 2014-06-30 09:43:50


    Part 3


    Pokaż HC


     
    Niedziałające mirrory:
    2 - zoznam.sk
    Zakończenie sprawdzania segmentów: 2014-06-30 09:22:36
    bodziosol




    Ostatnio edytowane przez bodziosol ; 30.06.2014 o 09:47




  2. Léon upija się na koszt 2 osób:

    herbertbmw (20.07.2016), W (29.06.2014)

Zakładki

Zakładki

Uprawnienia

  • Nie możesz zakładać nowych tematów
  • Nie możesz pisać wiadomości
  • Nie możesz dodawać załączników
  • Nie możesz edytować swoich postów
  •  
  • BB Code jest Włączony
  • EmotikonyWłączony
  • [IMG] kod jest Włączony
  • [VIDEO] code is Włączony
  • HTML jest Wyłączony
  • Trackbacki : Wyłączony
  • Pingbacki : Wyłączony
  • Refbacki : Włączony