Pokaż wyniki od 1 do 1 z 1
  1. #1
    Professional Uploader Avatar Léon
    Dołączył
    16.12.2013
    Skąd
    Paryż
    Postów
    5 411
    Postawił
    33
    Piwa otrzymane
    16 402 (4 968)

    OK Rodzinka nie z tej Ziemi 3D | 2013 [MULTi][1080p][BluRay][H-OU]


    Rodzinka nie z tej Ziemi (2013)
    Escape from Planet Earth







    Ocena: 6,1/10
    Produkcja: Kanada, USA,
    Gatunek: Animacja, Komedia, Przygodowy, Sci-Fi,
    Światowa Premiera: 2013-02-15
    Polska Premiera: 2014-02-21
    Reżyseria: Cal Brunker
    Zdjęcia: Matthew A. Ward
    Scenariusz: Bob BarlenCal Brunker
    Muzyka: Aaron Zigman
    Czas trwania: 1 godz. 29 min.
    Dystrybucja: Monolith Films
    O filmie: Rodzinka nie z tej Ziemi (2013) - Filmweb





    Rob Corddry - Gary Supernova
    Brendan Fraser - Scorch Supernova
    Sarah Jessica Parker - Kira Supernova
    William Shatner - Generał Shanker





    Astronauta Scorch Supernova uchodzi za bohatera narodowego populacji planety Baab. Podczas kolejnej kosmicznej wyprawy jego celem staje się Ziemia, z której odebrano tajemniczy sygnał S.O.S.. Międzyplanetarny podróżnik nie zdaje sobie sprawy, że jej mieszkańcy nie zareagują przyjaźnie na widok przybysza z innej planety. Tkwiącemu po uszy w tarapatach bohaterowi przychodzi z pomocą brat Gary, a gdy on również wpadnie w pułapkę Ziemian, na ratunek ruszy cała rodzinna flotylla Supernovych, która udowodni, że w rodzinie nieziemska wręcz siła!









    Kod:
    Format : Matroska
    Format version : Version 4 / Version 2
    File size: 8.42 GiB
    Duration : 1h 29mn
    Overall bit rate : 13.5 Mbps
    Encoded date : UTC 2014-07-11 16:34:47
    Writing application: mkvmerge v6.7.0 ('Back to the Ground') 32bit built on Jan8 2014 15:03:17
    Writing library: libebml v1.3.0 + libmatroska v1.4.1
    
    Video
    ID : 1
    Format : AVC
    Format/Info: Advanced Video Codec
    Format profile : [email protected]
    Format settings, CABAC : Yes
    Format settings, ReFrames: 4 frames
    Codec ID : V_MPEG4/ISO/AVC
    Duration : 1h 29mn
    Bit rate : 12.1 Mbps
    Width: 1 920 pixels
    Height : 1 080 pixels
    Display aspect ratio : 16:9
    Frame rate mode: Constant
    Frame rate : 23.976 fps
    Color space: YUV
    Chroma subsampling : 4:2:0
    Bit depth: 8 bits
    Scan type: Progressive
    Bits/(Pixel*Frame) : 0.244
    Stream size: 7.57 GiB (90%)
    Title: FILM
    Writing library: x264 
    Language : English
    Default: Yes
    Forced : No
    
    Audio #1
    ID : 2
    Format : AC-3
    Format/Info: Audio Coding 3
    Mode extension : CM (complete main)
    Format settings, Endianness: Big
    Codec ID : A_AC3
    Duration : 1h 29mn
    Bit rate mode: Constant
    Bit rate : 448 Kbps
    Channel(s) : 6 channels
    Channel positions: Front: L C R, Side: L R, LFE
    Sampling rate: 48.0 KHz
    Bit depth: 16 bits
    Compression mode : Lossy
    Stream size: 286 MiB (3%)
    Title: PL AUDIO
    Language : Polish
    Default: Yes
    Forced : No
    
    Audio #2
    ID : 3
    Format : AC-3
    Format/Info: Audio Coding 3
    Mode extension : CM (complete main)
    Format settings, Endianness: Big
    Codec ID : A_AC3
    Duration : 1h 29mn
    Bit rate mode: Constant
    Bit rate : 640 Kbps
    Channel(s) : 6 channels
    Channel positions: Front: L C R, Side: L R, LFE
    Sampling rate: 48.0 KHz
    Bit depth: 16 bits
    Compression mode : Lossy
    Delay relative to video: 2s 500ms
    Stream size: 409 MiB (5%)
    Title: ENG AC3 5.1
    Language : English
    Default: No
    Forced : No
    
    Text
    ID : 4
    Format : PGS
    Muxing mode: zlib
    Codec ID : S_HDMV/PGS
    Codec ID/Info: The same subtitle format used on BDs/HD-DVDs
    Title: PL SUB 3D
    Language : Polish
    Default: No
    Forced : No

    Part 1


    Nazwa pliku: Escape.from.Planet.Earth.3D.2013.MULTI.1080p.BluRay.H-OU.x264.AC3.part1.rar
    Rozmiar pliku: 3850,00 MB
    CRC32: 8A889C36
    Liczba segmentów: 454
    Liczba mirrorów: 9
    Uploader: Leon
    Upload dla: p2m.net.pl


    Part 2


    Nazwa pliku: Escape.from.Planet.Earth.3D.2013.MULTI.1080p.BluRay.H-OU.x264.AC3.part2.rar
    Rozmiar pliku: 3850,00 MB
    CRC32: 8FD4B344
    Liczba segmentów: 455
    Liczba mirrorów: 10
    Uploader: Leon
    Upload dla: p2m.net.pl


    Part 3


    Nazwa pliku: Escape.from.Planet.Earth.3D.2013.MULTI.1080p.BluRay.H-OU.x264.AC3.part3.rar
    Rozmiar pliku: 1652,20 MB
    CRC32: 887D207F
    Liczba segmentów: 196
    Liczba mirrorów: 8
    Uploader: Leon
    Upload dla: p2m.net.pl





    Part 1


    Pokaż HC

     
    Wszystko w porządku
    Zakończenie sprawdzania segmentów: 2014-07-13 15:19:01

    Part 2


    Pokaż HC

     
    Wszystko w porządku
    Zakończenie sprawdzania segmentów: 2014-07-13 15:48:24

    Part 3


    Pokaż HC

     
    Niedziałające mirrory:
    4 - gmx.com
    Zakończenie sprawdzania segmentów: 2014-07-13 17:28:17



    Ostatnio edytowane przez xaveq ; 13.07.2014 o 17:34




  2. Léon upija się na koszt 4 osób:

    bedi128 (14.08.2014), macko33 (17.12.2014), mechanikal5 (26.05.2015), W (13.07.2014)

Zakładki

Zakładki

Uprawnienia

  • Nie możesz zakładać nowych tematów
  • Nie możesz pisać wiadomości
  • Nie możesz dodawać załączników
  • Nie możesz edytować swoich postów
  •  
  • BB Code jest Włączony
  • EmotikonyWłączony
  • [IMG] kod jest Włączony
  • [VIDEO] code is Włączony
  • HTML jest Wyłączony
  • Trackbacki : Wyłączony
  • Pingbacki : Wyłączony
  • Refbacki : Włączony