Pokaż wyniki od 1 do 1 z 1
  1. #1
    Professional Uploader Avatar Léon
    Dołączył
    16.12.2013
    Skąd
    Paryż
    Postów
    5 411
    Postawił
    33
    Piwa otrzymane
    16 402 (4 968)

    PL & ENG Rio 2 | 2014 [3D][MULTi][1080p][H-SBS][BluRay]


    Rio 2 (2014)
    PL Dubbing / 3D / H-SBS / 1080p. / BluRay







    Ocena: 6,9/10
    Produkcja: USA,
    Gatunek: Animacja, Komedia, Przygodowy,
    Światowa Premiera: 2014-03-20
    Polska Premiera: 2014-05-09
    Reżyseria: Carlos Saldanha
    Zdjęcia: Renato Falcão
    Scenariusz: Carlos SaldanhaJenny BicksYoni BrennerCarlos Kotkin
    Muzyka: John Powell
    Czas trwania: 1 godz. 41 min.
    Dystrybucja: Imperial - Cinepix
    O filmie: Rio 2 (2014) - Filmweb





    Jesse Eisenberg - Blu
    Anne Hathaway - Jewel
    Jemaine Clement - Nigel
    Jamie Foxx - Nico





    Kontynuacja barwnych przygód bohaterów animowanego przeboju z roku 2011. Blu, Julia i trójka ich dzieci wiodą rodzinny tryb życia, ale Julia obawia się, że jej dzieci nigdy nie poznają, co to znaczy być wolnym ptakiem. Ku jej zdumieniu Blu postanawia zabrać całą rodzinę na wyprawę do dżungli. Wyruszają do Amazonii, gdzie na ich trop wpada dawny przeciwnik, Nigel.









    Kod:
    Format : Matroska
    Format version : Version 4 / Version 2
    File size: 7.54 GiB
    Duration : 1h 41mn
    Overall bit rate : 10.7 Mbps
    Encoded date : UTC 2014-07-18 09:53:49
    Writing application: mkvmerge v6.7.0 ('Back to the Ground') 32bit built on Jan8 2014 15:03:17
    Writing library: libebml v1.3.0 + libmatroska v1.4.1
    
    Video
    ID : 1
    Format : AVC
    Format/Info: Advanced Video Codec
    Format profile : [email protected]
    MultiView_Count: 2
    MultiView_Layout : Side by Side (left eye first)
    Format settings, CABAC : Yes
    Format settings, ReFrames: 4 frames
    Codec ID : V_MPEG4/ISO/AVC
    Duration : 1h 41mn
    Bit rate : 8 493 Kbps
    Width: 1 920 pixels
    Height : 1 080 pixels
    Display aspect ratio : 16:9
    Frame rate mode: Constant
    Frame rate : 23.976 fps
    Color space: YUV
    Chroma subsampling : 4:2:0
    Bit depth: 8 bits
    Scan type: Progressive
    Bits/(Pixel*Frame) : 0.171
    Stream size: 6.00 GiB (80%)
    Title: FILM
    Writing library: x264 
    Language : English
    Default: Yes
    Forced : No
    
    Audio #1
    ID : 2
    Format : AC-3
    Format/Info: Audio Coding 3
    Mode extension : CM (complete main)
    Format settings, Endianness: Big
    Codec ID : A_AC3
    Duration : 1h 41mn
    Bit rate mode: Constant
    Bit rate : 448 Kbps
    Channel(s) : 6 channels
    Channel positions: Front: L C R, Side: L R, LFE
    Sampling rate: 48.0 KHz
    Bit depth: 16 bits
    Compression mode : Lossy
    Stream size: 324 MiB (4%)
    Title: PL DUB 5.1
    Language : Polish
    Default: Yes
    Forced : No
    
    Audio #2
    ID : 3
    Format : DTS
    Format/Info: Digital Theater Systems
    Format profile : ES
    Mode : 16
    Format settings, Endianness: Big
    Codec ID : A_DTS
    Duration : 1h 41mn
    Bit rate mode: Constant
    Bit rate : 1 509 Kbps
    Channel(s) : 6 channels
    Channel positions: Front: L C R, Side: L R, LFE
    Sampling rate: 48.0 KHz
    Bit depth: 24 bits
    Compression mode : Lossy
    Stream size: 1.07 GiB (14%)
    Title: English DTS 5.1
    Language : English
    Default: No
    Forced : No
    
    Text #1
    ID : 4
    Format : PGS
    Muxing mode: zlib
    Codec ID : S_HDMV/PGS
    Codec ID/Info: The same subtitle format used on BDs/HD-DVDs
    Title: PL SUB 3DHSBS
    Language : Polish
    Default: No
    Forced : No
    
    Text #2
    ID : 5
    Format : VobSub
    Muxing mode: zlib
    Codec ID : S_VOBSUB
    Codec ID/Info: The same subtitle format used on DVDs
    Title: English (3D PGS)
    Language : English
    Default: No
    Forced : No

    Part 1


    Nazwa pliku: Rio.2.2014.3D.MULTI.BluRay.1080p.HSBS.x264.DTS.part1.rar
    Rozmiar pliku: 3400,00 MB
    CRC32: 487D5EC2
    Liczba segmentów: 401
    Liczba mirrorów: 10
    Uploader: Leon Zawodowiec
    Upload dla: p2m.net.pl


    Part 2


    Nazwa pliku: Rio.2.2014.3D.MULTI.BluRay.1080p.HSBS.x264.DTS.part2.rar
    Rozmiar pliku: 3400,00 MB
    CRC32: 9551F7D8
    Liczba segmentów: 396
    Liczba mirrorów: 10
    Uploader: Leon Zawodowiec
    Upload dla: p2m.net.pl


    Part 3


    Nazwa pliku: Rio.2.2014.3D.MULTI.BluRay.1080p.HSBS.x264.DTS.part3.rar
    Rozmiar pliku: 1566,49 MB
    CRC32: C881DF0F
    Liczba segmentów: 182
    Liczba mirrorów: 8
    Uploader: Leon Zawodowiec
    Upload dla: p2m.net.pl




    Part 1


    Pokaż HC


    Part 2


    Pokaż HC


    Part 3


    Pokaż HC


    Ostatnio edytowane przez Léon ; 19.07.2014 o 02:02




  2. Léon upija się na koszt 5 osób:

    marcco (17.01.2015), rafal23 (28.12.2014), Samrat (22.01.2015), Silver17 (21.07.2014), W (19.07.2014)

Zakładki

Zakładki

Uprawnienia

  • Nie możesz zakładać nowych tematów
  • Nie możesz pisać wiadomości
  • Nie możesz dodawać załączników
  • Nie możesz edytować swoich postów
  •  
  • BB Code jest Włączony
  • EmotikonyWłączony
  • [IMG] kod jest Włączony
  • [VIDEO] code is Włączony
  • HTML jest Wyłączony
  • Trackbacki : Wyłączony
  • Pingbacki : Wyłączony
  • Refbacki : Włączony