Pokaż wyniki od 1 do 1 z 1
  1. #1
    Professional Uploader Avatar Léon
    Dołączył
    16.12.2013
    Skąd
    Paryż
    Postów
    5 411
    Postawił
    33
    Piwa otrzymane
    16 402 (4 968)

    PL & ENG Noe: Wybrany przez Boga | 2014 [MULTi][3D][H-SBS][1080p][BluRay]


    Noe: Wybrany przez Boga (2014)
    Noah







    Ocena: 6,0/10
    Produkcja: USA,
    Gatunek: Dramat, Fantasy,
    Światowa Premiera: 2014-03-10
    Polska Premiera: 2014-03-28
    Reżyseria: Darren Aronofsky
    Zdjęcia: Matthew Libatique
    Scenariusz: Darren AronofskyAri Handel
    Muzyka: Clint Mansell
    Czas trwania: 2 godz. 18 min.
    Dystrybucja: United International Pictures Sp z o.o.
    O filmie: Noe: Wybrany przez Boga (2014) - Filmweb





    Russell Crowe - Noe
    Jennifer Connelly - Naameh
    Ray Winstone - Tubal-Kain
    Anthony Hopkins - Matuzalem





    Zainspirowany biblijną historią o sile ducha, poświęceniu i nadziei Darren Aronofsky przekłada na język filmu osobistą wizję opowieści o Noem. Russell Crowe wciela się w niej w postać człowieka, który został wybrany do podjęcia wielkiej misji uratowania rodzaju ludzkiego oraz zwierząt przed apokaliptycznym potopem, który ma zniszczyć zepsuty świat. Film podejmuje towarzyszące człowiekowi od zarania dziejów tematy dobra i zła, zniszczenia i miłosierdzia, nadziei oraz rodziny.









    Kod:
    Format : Matroska
    Format version : Version 4 / Version 2
    File size: 14.0 GiB
    Duration : 2h 17mn
    Overall bit rate : 14.6 Mbps
    Encoded date : UTC 2014-07-24 11:36:23
    Writing application: mkvmerge v6.7.0 ('Back to the Ground') 32bit built on Jan8 2014 15:03:17
    Writing library: libebml v1.3.0 + libmatroska v1.4.1
    
    Video
    ID : 1
    Format : AVC
    Format/Info: Advanced Video Codec
    Format profile : [email protected]
    Format settings, CABAC : Yes
    Format settings, ReFrames: 4 frames
    Codec ID : V_MPEG4/ISO/AVC
    Duration : 2h 17mn
    Bit rate : 12.5 Mbps
    Width: 1 920 pixels
    Height : 1 080 pixels
    Display aspect ratio : 16:9
    Frame rate mode: Constant
    Frame rate : 23.962 fps
    Original frame rate: 23.976 fps
    Color space: YUV
    Chroma subsampling : 4:2:0
    Bit depth: 8 bits
    Scan type: Progressive
    Bits/(Pixel*Frame) : 0.252
    Stream size: 11.7 GiB (83%)
    Title: FILM
    Writing library: x264 
    Language : English
    Default: Yes
    Forced : No
    Color primaries: BT.709
    Transfer characteristics : BT.709
    Matrix coefficients: BT.709
    
    Audio #1
    ID : 2
    Format : AC-3
    Format/Info: Audio Coding 3
    Mode extension : CM (complete main)
    Format settings, Endianness: Big
    Codec ID : A_AC3
    Duration : 2h 17mn
    Bit rate mode: Constant
    Bit rate : 640 Kbps
    Channel(s) : 6 channels
    Channel positions: Front: L C R, Side: L R, LFE
    Sampling rate: 48.0 KHz
    Bit depth: 16 bits
    Compression mode : Lossy
    Delay relative to video: -83ms
    Stream size: 631 MiB (4%)
    Title: PL DUB 5.1
    Language : Polish
    Default: Yes
    Forced : No
    
    Audio #2
    ID : 3
    Format : DTS
    Format/Info: Digital Theater Systems
    Mode : 16
    Format settings, Endianness: Big
    Codec ID : A_DTS
    Duration : 2h 17mn
    Bit rate mode: Constant
    Bit rate : 1 509 Kbps
    Channel(s) : 6 channels
    Channel positions: Front: L C R, Side: L R, LFE
    Sampling rate: 48.0 KHz
    Bit depth: 24 bits
    Compression mode : Lossy
    Stream size: 1.45 GiB (10%)
    Title: ENG DTS 5.1
    Language : English
    Default: No
    Forced : No
    
    Text #1
    ID : 4
    Format : PGS
    Muxing mode: zlib
    Codec ID : S_HDMV/PGS
    Codec ID/Info: The same subtitle format used on BDs/HD-DVDs
    Title: PL SUB 3D HSBS
    Language : Polish
    Default: No
    Forced : No
    
    Text #2
    ID : 5
    Format : PGS
    Muxing mode: zlib
    Codec ID : S_HDMV/PGS
    Codec ID/Info: The same subtitle format used on BDs/HD-DVDs
    Title: ENG SUB 3D
    Language : English
    Default: No
    Forced : No
    
    Text #3
    ID : 6
    Format : PGS
    Muxing mode: zlib
    Codec ID : S_HDMV/PGS
    Codec ID/Info: The same subtitle format used on BDs/HD-DVDs
    Title: SPA SUB 3D
    Language : Spanish
    Default: No
    Forced : No

    Part 1


    Nazwa pliku: Noah.3D.2013.MULTI.1080p.BluRay.HSBS.x264.DTS.part1.rar
    Rozmiar pliku: 3950,00 MB
    CRC32: 6FF1FEFC
    Liczba segmentów: 467
    Liczba mirrorów: 9
    Uploader: Leon Zawodowiec
    Upload dla: p2m.net.pl


    Part 2


    Nazwa pliku: Noah.3D.2013.MULTI.1080p.BluRay.HSBS.x264.DTS.part2.rar
    Rozmiar pliku: 3950,00 MB
    CRC32: CC05A37E
    Liczba segmentów: 464
    Liczba mirrorów: 8
    Uploader: Leon Zawodowiec
    Upload dla: p2m.net.pl


    Part 3


    Nazwa pliku: Noah.3D.2013.MULTI.1080p.BluRay.HSBS.x264.DTS.part3.rar
    Rozmiar pliku: 3950,00 MB
    CRC32: EF9BFFA0
    Liczba segmentów: 464
    Liczba mirrorów: 8
    Uploader: Leon Zawodowiec
    Upload dla: p2m.net.pl


    Part 4


    Nazwa pliku: Noah.3D.2013.MULTI.1080p.BluRay.HSBS.x264.DTS.part4.rar
    Rozmiar pliku: 3533,40 MB
    CRC32: 0DCE89B5
    Liczba segmentów: 417
    Liczba mirrorów: 8
    Uploader: Leon Zawodowiec
    Upload dla: p2m.net.pl




    Part 1


    Pokaż HC


    Part 2


    Pokaż HC


    Part 3


    Pokaż HC


    Part 4


    Pokaż HC





  2. Léon upija się na koszt 4 osób:

    11bioly  (23.08.2014), bedi128 (13.08.2014), Samrat (20.01.2015), W (26.07.2014)

Zakładki

Zakładki

Uprawnienia

  • Nie możesz zakładać nowych tematów
  • Nie możesz pisać wiadomości
  • Nie możesz dodawać załączników
  • Nie możesz edytować swoich postów
  •  
  • BB Code jest Włączony
  • EmotikonyWłączony
  • [IMG] kod jest Włączony
  • [VIDEO] code is Włączony
  • HTML jest Wyłączony
  • Trackbacki : Wyłączony
  • Pingbacki : Wyłączony
  • Refbacki : Włączony