Pokaż wyniki od 1 do 1 z 1
  1. #1
    Professional Uploader Avatar Léon
    Dołączył
    16.12.2013
    Skąd
    Paryż
    Postów
    5 411
    Postawił
    33
    Piwa otrzymane
    16 402 (4 968)

    OK Thor: Mroczny świat | 2013 [MULTi][3D][H-SBS][1080p][BluRay]


    Thor: Mroczny świat (2013)
    Thor: The Dark World







    Ocena: 7,2/10
    Produkcja: USA,
    Gatunek: Fantasy, Przygodowy,
    Światowa Premiera: 2013-10-30
    Polska Premiera: 2013-11-08
    Reżyseria: Alan Taylor
    Zdjęcia: Kramer Morgenthau
    Scenariusz: Christopher YostChristopher MarkusStephen McFeely
    Muzyka: Brian Tyler
    Czas trwania: 1 godz. 52 min.
    Dystrybucja: Disney
    O filmie: Thor: Mroczny świat (2013) - Filmweb





    Chris Hemsworth - Thor
    Natalie Portman - Jane Foster
    Tom Hiddleston - Loki
    Anthony Hopkins - Odyn





    "Thor: Mroczny świat" to kontynuacja przygód Thora, który nie ustaje w walce o ocalenie Ziemi i pozostałych Ośmiu Królestw przed tajemniczym, starszym niż wszechświat wrogiem. Po wydarzeniach z filmów "Thor" i "Avengers", Thor próbuje zaprowadzić porządek w kosmosie, ale starożytna rasa, dowodzona przez mściwego Malekitha powraca, by zepchnąć wszechświat w ciemność. Stając do walki z wrogiem, którego nie może pokonać nawet Asgard pod wodzą Odyna, superbohater musi udać się na[span class="fullText hide"]niebezpieczną wyprawę, podczas której ponownie zjednoczy siły z Jane Foster i poświęci wszystko, by ratować nas wszystkich.









    Kod:
    Format : Matroska
    Format version : Version 4 / Version 2
    File size: 11.3 GiB
    Duration : 1h 52mn
    Overall bit rate : 14.4 Mbps
    Encoded date : UTC 2014-07-29 08:59:53
    Writing application: mkvmerge v6.7.0 ('Back to the Ground') 32bit built on Jan8 2014 15:03:17
    Writing library: libebml v1.3.0 + libmatroska v1.4.1
    
    Video
    ID : 1
    Format : AVC
    Format/Info: Advanced Video Codec
    Format profile : [email protected]
    Format settings, CABAC : Yes
    Format settings, ReFrames: 2 frames
    Codec ID : V_MPEG4/ISO/AVC
    Duration : 1h 52mn
    Bit rate : 11.6 Mbps
    Width: 1 920 pixels
    Height : 1 080 pixels
    Display aspect ratio : 16:9
    Frame rate mode: Constant
    Frame rate : 23.976 fps
    Color space: YUV
    Chroma subsampling : 4:2:0
    Bit depth: 8 bits
    Scan type: Progressive
    Bits/(Pixel*Frame) : 0.234
    Stream size: 9.12 GiB (80%)
    Title: FILM
    Writing library: x264 core
    Language : English
    Default: Yes
    Forced : No
    Color primaries: BT.709
    Transfer characteristics : BT.709
    Matrix coefficients: BT.709
    
    Audio #1
    ID : 2
    Format : AC-3
    Format/Info: Audio Coding 3
    Mode extension : CM (complete main)
    Format settings, Endianness: Big
    Codec ID : A_AC3
    Duration : 1h 52mn
    Bit rate mode: Constant
    Bit rate : 640 Kbps
    Channel(s) : 6 channels
    Channel positions: Front: L C R, Side: L R, LFE
    Sampling rate: 48.0 KHz
    Bit depth: 16 bits
    Compression mode : Lossy
    Stream size: 515 MiB (4%)
    Title: PL AUDIO 5.1
    Language : Polish
    Default: Yes
    Forced : No
    
    Audio #2
    ID : 3
    Format : DTS
    Format/Info: Digital Theater Systems
    Mode : 16
    Format settings, Endianness: Big
    Codec ID : A_DTS
    Duration : 1h 52mn
    Bit rate mode: Constant
    Bit rate : 1 509 Kbps
    Channel(s) : 6 channels
    Channel positions: Front: L C R, Side: L R, LFE
    Sampling rate: 48.0 KHz
    Bit depth: 24 bits
    Compression mode : Lossy
    Stream size: 1.19 GiB (10%)
    Title: ENG DTS 5.1
    Language : English
    Default: No
    Forced : No
    
    Audio #3
    ID : 4
    Format : AC-3
    Format/Info: Audio Coding 3
    Mode extension : CM (complete main)
    Format settings, Endianness: Big
    Codec ID : A_AC3
    Duration : 1h 52mn
    Bit rate mode: Constant
    Bit rate : 384 Kbps
    Channel(s) : 6 channels
    Channel positions: Front: L C R, Side: L R, LFE
    Sampling rate: 48.0 KHz
    Bit depth: 16 bits
    Compression mode : Lossy
    Stream size: 309 MiB (3%)
    Title: PL DUB 5.1
    Language : Polish
    Default: No
    Forced : No
    
    Text
    ID : 5
    Format : PGS
    Muxing mode: zlib
    Codec ID : S_HDMV/PGS
    Codec ID/Info: The same subtitle format used on BDs/HD-DVDs
    Title: PL SUB 3D HSBS
    Language : Polish
    Default: No
    Forced : No

    Part 1


    Nazwa pliku: Thor.The.Dark.World.3D.2013.MULTI.1080p.BluRay.Half-SBS.x264.DTS.part1.rar
    Rozmiar pliku: 3950,00 MB
    CRC32: 1162164B
    Liczba segmentów: 460
    Liczba mirrorów: 8
    Uploader: Leon Zawodowiec
    Upload dla: p2m.net.pl


    Part 2


    Nazwa pliku: Thor.The.Dark.World.3D.2013.MULTI.1080p.BluRay.Half-SBS.x264.DTS.part2.rar
    Rozmiar pliku: 3950,00 MB
    CRC32: 71FF3912
    Liczba segmentów: 465
    Liczba mirrorów: 7
    Uploader: Leon Zawodowiec
    Upload dla: p2m.net.pl


    Part 3


    Nazwa pliku: Thor.The.Dark.World.3D.2013.MULTI.1080p.BluRay.Half-SBS.x264.DTS.part3.rar
    Rozmiar pliku: 3950,00 MB
    CRC32: A5438B3B
    Liczba segmentów: 465
    Liczba mirrorów: 8
    Uploader: Leon Zawodowiec
    Upload dla: p2m.net.pl


    Part 4


    Nazwa pliku: Thor.The.Dark.World.3D.2013.MULTI.1080p.BluRay.Half-SBS.x264.DTS.part4.rar
    Rozmiar pliku: 557,63 MB
    CRC32: D7B99AC4
    Liczba segmentów: 67
    Liczba mirrorów: 8
    Uploader: Leon Zawodowiec
    Upload dla: p2m.net.pl




    Part 1


    Pokaż HC


     
    Wszystko w porządku
    Zakończenie sprawdzania segmentów: 2014-08-14 21:34:43


    Part 2


    Pokaż HC


     
    Wszystko w porządku
    Zakończenie sprawdzania segmentów: 2014-08-14 21:34:03


    Part 3


    Pokaż HC


     
    Wszystko w porządku
    Zakończenie sprawdzania segmentów: 2014-08-14 21:42:03


    Part 4


    Pokaż HC



     
    Wszystko w porządku
    Zakończenie sprawdzania segmentów: 2014-08-14 21:40:37
    bodziosol

    Ostatnio edytowane przez bodziosol ; 14.08.2014 o 21:42




  2. Léon upija się na koszt 7 osób:

    11bioly  (23.08.2014), cezar116  (11.10.2014), herbertbmw (24.07.2016), krzych278 (28.10.2014), paweles (29.12.2014), ray82 (30.04.2015), W (31.07.2014)

Zakładki

Zakładki

Uprawnienia

  • Nie możesz zakładać nowych tematów
  • Nie możesz pisać wiadomości
  • Nie możesz dodawać załączników
  • Nie możesz edytować swoich postów
  •  
  • BB Code jest Włączony
  • EmotikonyWłączony
  • [IMG] kod jest Włączony
  • [VIDEO] code is Włączony
  • HTML jest Wyłączony
  • Trackbacki : Wyłączony
  • Pingbacki : Wyłączony
  • Refbacki : Włączony