Pokaż wyniki od 1 do 2 z 2
  1. #1
    Professional Uploader Avatar Léon
    Dołączył
    16.12.2013
    Skąd
    Paryż
    Postów
    5 411
    Postawił
    33
    Piwa otrzymane
    16 402 (4 968)

    OK Kapitan Ameryka: Zimowy żołnierz | 2014 [3D][H-SBS][1080p][BluRay]


    Kapitan Ameryka: Zimowy żołnierz (2014)
    Captain America: The Winter Soldier







    Ocena: 7,6/10
    Produkcja: USA,
    Gatunek: Akcja, Sci-Fi,
    Światowa Premiera: 2014-03-13
    Polska Premiera: 2014-03-26
    Reżyseria: Anthony RussoJoe Russo
    Zdjęcia: Trent Opaloch
    Scenariusz: Christopher MarkusStephen McFeely
    Muzyka: Henry Jackman
    Czas trwania: 2 godz. 16 min.
    Dystrybucja: Disney
    O filmie: Kapitan Ameryka: Zimowy żołnierz (2014) - Filmweb





    Chris Evans - Steve Rogers / Kapitan Ameryka
    Samuel L. Jackson - Nick Fury
    Scarlett Johansson - Natasha Romanoff / Czarna Wdowa
    Robert Redford - Alexander Pierce





    Marvel Studios, wytwórnia stojąca za sukcesem takich hitów jak "Avengers" i "Iron Man 3", przedstawia film "Kapitan Ameryka: Zimowy żołnierz". Kapitan Ameryka zostaje wplątany w sieć zagrażającej całemu światu intrygi. By ujawnić spisek superbohater łączy siły z Czarną Wdową (Scarlett Johansson). Kiedy już wreszcie kryzys wydaje się być zażegnany, niespodziewanie pojawia się nowy, potężny wróg – Zimowy żołnierz…









    Kod:
    Format : Matroska
    Format version : Version 2
    File size: 14.9 GiB
    Duration : 2h 15mn
    Overall bit rate : 15.7 Mbps
    Movie name : MARVEL'S_CAPTAIN_AMERICA__THE_WINTER_SOLDIER_-_BLU-RAY_3Dℍ.Title800
    Encoded date : UTC 2014-08-01 07:19:35
    Writing application: DVDFab
    Writing library: libebml v0.7.8 + libmatroska v0.8.1
    
    Video
    ID : 1
    Format : AVC
    Format/Info: Advanced Video Codec
    Format profile : [email protected]
    Format settings, CABAC : Yes
    Format settings, ReFrames: 2 frames
    Codec ID : V_MPEG4/ISO/AVC
    Duration : 2h 15mn
    Bit rate : 13.9 Mbps
    Width: 1 920 pixels
    Height : 804 pixels
    Display aspect ratio : 2.40:1
    Frame rate mode: Constant
    Frame rate : 23.976 fps
    Color space: YUV
    Chroma subsampling : 4:2:0
    Bit depth: 8 bits
    Scan type: Progressive
    Bits/(Pixel*Frame) : 0.376
    Stream size: 13.2 GiB (88%)
    Writing library: x264 core
    Default: Yes
    Forced : No
    Color primaries: BT.709
    Transfer characteristics : BT.709
    Matrix coefficients: BT.709
    
    Audio
    ID : 2
    Format : DTS
    Format/Info: Digital Theater Systems
    Mode : 16
    Format settings, Endianness: Big
    Codec ID : A_DTS
    Duration : 2h 15mn
    Bit rate mode: Constant
    Bit rate : 1 509 Kbps
    Channel(s) : 6 channels
    Channel positions: Front: L C R, Side: L R, LFE
    Sampling rate: 48.0 KHz
    Bit depth: 24 bits
    Compression mode : Lossy
    Stream size: 1.43 GiB (10%)
    Language : English
    Default: Yes
    Forced : No

    Part 1


    Nazwa pliku: Captain.America.The.Winter.Soldier.2014.3D.1080p.BluRay.Half-SBS.DTS.x264.part1.rar
    Rozmiar pliku: 3850,00 MB
    CRC32: A8C02FA0
    Liczba segmentów: 456
    Liczba mirrorów: 6
    Uploader: Leon
    Upload dla: p2m.net.pl


    Part 2


    Nazwa pliku: Captain.America.The.Winter.Soldier.2014.3D.1080p.BluRay.Half-SBS.DTS.x264.part2.rar
    Rozmiar pliku: 3850,00 MB
    CRC32: 0B9D0128
    Liczba segmentów: 455
    Liczba mirrorów: 6
    Uploader: Leon
    Upload dla: p2m.net.pl


    Part 3


    Nazwa pliku: Captain.America.The.Winter.Soldier.2014.3D.1080p.BluRay.Half-SBS.DTS.x264.part3.rar
    Rozmiar pliku: 3850,00 MB
    CRC32: 48700021
    Liczba segmentów: 454
    Liczba mirrorów: 6
    Uploader: Leon
    Upload dla: p2m.net.pl


    Part 4


    Nazwa pliku: Captain.America.The.Winter.Soldier.2014.3D.1080p.BluRay.Half-SBS.DTS.x264.part4.rar
    Rozmiar pliku: 3850,00 MB
    CRC32: BB2DC4EA
    Liczba segmentów: 452
    Liczba mirrorów: 6
    Uploader: Leon
    Upload dla: p2m.net.pl


    Part 5


    Nazwa pliku: Captain.America.The.Winter.Soldier.2014.3D.1080p.BluRay.Half-SBS.DTS.x264.part5.rar
    Rozmiar pliku: 984,05 MB
    CRC32: E545F532
    Liczba segmentów: 117
    Liczba mirrorów: 5
    Uploader: Leon
    Upload dla: p2m.net.pl




    Part 1


    Pokaż HC


     
    Wszystko w porządku
    Zakończenie sprawdzania segmentów: 2014-08-14 21:50:32


    Part 2


    Pokaż HC


     
    Wszystko w porządku
    Zakończenie sprawdzania segmentów: 2014-08-14 21:50:16


    Part 3


    Pokaż HC


     
    Wszystko w porządku
    Zakończenie sprawdzania segmentów: 2014-08-14 21:50:03


    Part 4


    Pokaż HC


     
    Wszystko w porządku
    Zakończenie sprawdzania segmentów: 2014-08-14 21:53:58


    Part 5


    Pokaż HC


     
    Wszystko w porządku
    Zakończenie sprawdzania segmentów: 2014-08-14 21:51:23
    bodziosol





    Ostatnio edytowane przez bodziosol ; 14.08.2014 o 22:23




  2. Léon upija się na koszt 4 osób:

    cezar116  (3.08.2014), gonzo_86 (3.08.2014), raziel18 (2.08.2014), W (2.08.2014)

  3. #2
    VIP Avatar Łysy Al Capone
    Dołączył
    3.09.2007
    Postów
    152
    Postawił
    94
    Piwa otrzymane
    204 (115)

    Domyślnie

    Cholera to jest z dubbingiem :/

  4. Łysy Al Capone upija się na koszt:

    W (19.09.2014)

Zakładki

Zakładki

Uprawnienia

  • Nie możesz zakładać nowych tematów
  • Nie możesz pisać wiadomości
  • Nie możesz dodawać załączników
  • Nie możesz edytować swoich postów
  •  
  • BB Code jest Włączony
  • EmotikonyWłączony
  • [IMG] kod jest Włączony
  • [VIDEO] code is Włączony
  • HTML jest Wyłączony
  • Trackbacki : Wyłączony
  • Pingbacki : Wyłączony
  • Refbacki : Włączony