Pokaż wyniki od 1 do 1 z 1
  1. #1
    Professional Uploader Avatar Léon
    Dołączył
    16.12.2013
    Skąd
    Paryż
    Postów
    5 411
    Postawił
    33
    Piwa otrzymane
    16 402 (4 968)

    OK The Mortician | 2011 [MULTi][3D][H-SBS][1080p][BluRay]


    The Mortician [2011]







    Produkcja: Wielka Brytania
    Gatunek: Thriller
    Czas trwania: 89 min.
    Premiera: 2011 - Świat
    Reżyseria: Gareth Maxwell Roberts
    Scenariusz: Gareth Maxwell Roberts







    <span>Ameryka na skraju kryzysu finansowego.Przestępczość rośnie, a politycy nie podejmują żadnych działań.Bohaterem filmu jest pewien pracownik zakładu pogrzebowego. Pewnego dnia wokolicy pojawia się gangster Carver, a do zakładu pogrzebowegodostarczone zostaje ciało młodej kobiety. </span>(stopklatka.pl)









    Kod:
    Format : Matroska
    Format version : Version 4 / Version 2
    File size: 9.64 GiB
    Duration : 1h 29mn
    Overall bit rate mode: Variable
    Overall bit rate : 15.5 Mbps
    Encoded date : UTC 2014-08-02 23:36:26
    Writing application: mkvmerge v6.7.0 ('Back to the Ground') 32bit built on Jan8 2014 15:03:17
    Writing library: libebml v1.3.0 + libmatroska v1.4.1
    
    Video
    ID : 1
    Format : AVC
    Format/Info: Advanced Video Codec
    Format profile : [email protected]
    Format settings, CABAC : Yes
    Format settings, ReFrames: 2 frames
    Codec ID : V_MPEG4/ISO/AVC
    Duration : 1h 29mn
    Bit rate mode: Variable
    Bit rate : 13.4 Mbps
    Maximum bit rate : 40.0 Mbps
    Width: 1 920 pixels
    Height : 1 080 pixels
    Display aspect ratio : 16:9
    Frame rate mode: Constant
    Frame rate : 23.976 fps
    Color space: YUV
    Chroma subsampling : 4:2:0
    Bit depth: 8 bits
    Scan type: Progressive
    Bits/(Pixel*Frame) : 0.270
    Stream size: 8.35 GiB (87%)
    Title: FILM
    Writing library: x264 core
    Language : English
    Default: Yes
    Forced : No
    Color primaries: BT.709
    Transfer characteristics : BT.709
    Matrix coefficients: BT.709
    
    Audio #1
    ID : 2
    Format : AC-3
    Format/Info: Audio Coding 3
    Mode extension : CM (complete main)
    Format settings, Endianness: Big
    Codec ID : A_AC3
    Duration : 1h 29mn
    Bit rate mode: Constant
    Bit rate : 256 Kbps
    Channel(s) : 2 channels
    Channel positions: Front: L R
    Sampling rate: 48.0 KHz
    Bit depth: 16 bits
    Compression mode : Lossy
    Stream size: 163 MiB (2%)
    Title: PL AUDIO
    Language : Polish
    Default: Yes
    Forced : No
    
    Audio #2
    ID : 3
    Format : DTS
    Format/Info: Digital Theater Systems
    Mode : 16
    Format settings, Endianness: Big
    Codec ID : A_DTS
    Duration : 1h 29mn
    Bit rate mode: Constant
    Bit rate : 1 509 Kbps
    Channel(s) : 6 channels
    Channel positions: Front: L C R, Side: L R, LFE
    Sampling rate: 48.0 KHz
    Bit depth: 16 bits
    Compression mode : Lossy
    Stream size: 962 MiB (10%)
    Title: ENG DTS 5.1
    Language : English
    Default: No
    Forced : No
    
    Text
    ID : 4
    Format : PGS
    Muxing mode: zlib
    Codec ID : S_HDMV/PGS
    Codec ID/Info: The same subtitle format used on BDs/HD-DVDs
    Title: PL SUB 3D HSBS
    Language : Polish
    Default: No
    Forced : No

    Part 1


    Nazwa pliku: The.Mortician.3D.2011.MULTI.1080p.BluRay.HSBS.x264.DTS.part1.rar
    Rozmiar pliku: 3850,00 MB
    CRC32: BFD97600
    Liczba segmentów: 448
    Liczba mirrorów: 5
    Uploader: Leon
    Upload dla: p2m.net.pl


    Part 2


    Nazwa pliku: The.Mortician.3D.2011.MULTI.1080p.BluRay.HSBS.x264.DTS.part2.rar
    Rozmiar pliku: 3850,00 MB
    CRC32: 33BCE333
    Liczba segmentów: 457
    Liczba mirrorów: 5
    Uploader: Leon
    Upload dla: p2m.net.pl


    Part 3


    Nazwa pliku: The.Mortician.3D.2011.MULTI.1080p.BluRay.HSBS.x264.DTS.part3.rar
    Rozmiar pliku: 2941,30 MB
    CRC32: F71852A2
    Liczba segmentów: 343
    Liczba mirrorów: 6
    Uploader: Leon
    Upload dla: p2m.net.pl




    Part 1


    Pokaż HC

     
    Wszystko w porządku
    Zakończenie sprawdzania segmentów: 2014-08-18 05:35:39

    Part 2


    Pokaż HC

     
    Wszystko w porządku
    Zakończenie sprawdzania segmentów: 2014-08-18 05:35:39

    Part 3


    Pokaż HC

     
    Wszystko w porządku
    Zakończenie sprawdzania segmentów: 2014-08-18 05:35:39


    Ostatnio edytowane przez Markus* ; 18.08.2014 o 05:44




  2. Léon upija się na koszt:

    W (6.08.2014)

Zakładki

Zakładki

Uprawnienia

  • Nie możesz zakładać nowych tematów
  • Nie możesz pisać wiadomości
  • Nie możesz dodawać załączników
  • Nie możesz edytować swoich postów
  •  
  • BB Code jest Włączony
  • EmotikonyWłączony
  • [IMG] kod jest Włączony
  • [VIDEO] code is Włączony
  • HTML jest Wyłączony
  • Trackbacki : Wyłączony
  • Pingbacki : Wyłączony
  • Refbacki : Włączony