Pokaż wyniki od 1 do 1 z 1
  1. #1
    Professional Uploader Avatar Léon
    Dołączył
    16.12.2013
    Skąd
    Paryż
    Postów
    5 411
    Postawił
    33
    Piwa otrzymane
    16 402 (4 968)

    OK Need for Speed | 2014 [MULTI][3D][H-SBS][1080p][BluRay]


    Need for Speed (2014)







    Ocena: 6,8/10
    Produkcja: USA,
    Gatunek: Akcja,
    Światowa Premiera: 2014-03-12
    Polska Premiera: 2014-03-21
    Reżyseria: Scott Waugh
    Zdjęcia: Shane Hurlbut
    Scenariusz: George Gatins
    Muzyka: Nathan Furst
    Czas trwania: 2 godz. 10 min.
    Dystrybucja: Monolith Films
    O filmie: Need for Speed (2014) - Filmweb





    Aaron Paul - Tobey Marshall
    Dominic Cooper - Dino Brewster
    Michael Keaton - Monarch
    Imogen Poots - Julia Maddon





    Kierowca rajdowy - Tobey - wychodzi z więzienia po odsiedzeniu kary za przestępstwo, w które wrobił go dawny wspólnik. Szukając okazji do zemsty zgłasza akces do nielegalnych, ekstremalnych rajdów ulicznych. Tymczasem dawny wspólnik na wieść o jego uwolnieniu, wyznacza nagrodę za jego głowę.









    Kod:
    Format : Matroska
    Format version : Version 4 / Version 2
    File size: 12.9 GiB
    Duration : 2h 10mn
    Overall bit rate : 14.1 Mbps
    Encoded date : UTC 2014-08-07 19:10:28
    Writing application: mkvmerge v6.7.0 ('Back to the Ground') 32bit built on Jan8 2014 15:03:17
    Writing library: libebml v1.3.0 + libmatroska v1.4.1
    
    Video
    ID : 1
    Format : AVC
    Format/Info: Advanced Video Codec
    Format profile : [email protected]
    MultiView_Count: 2
    MultiView_Layout : Side by Side (left eye first)
    Format settings, CABAC : Yes
    Format settings, ReFrames: 4 frames
    Codec ID : V_MPEG4/ISO/AVC
    Duration : 2h 10mn
    Bit rate : 11.8 Mbps
    Width: 1 920 pixels
    Height : 1 080 pixels
    Display aspect ratio : 16:9
    Frame rate mode: Constant
    Frame rate : 23.976 fps
    Color space: YUV
    Chroma subsampling : 4:2:0
    Bit depth: 8 bits
    Scan type: Progressive
    Bits/(Pixel*Frame) : 0.238
    Stream size: 10.8 GiB (84%)
    Title: FILM
    Writing library: x264 
    Language : English
    Default: Yes
    Forced : No
    
    Audio #1
    ID : 2
    Format : AC-3
    Format/Info: Audio Coding 3
    Mode extension : CM (complete main)
    Format settings, Endianness: Big
    Codec ID : A_AC3
    Duration : 2h 10mn
    Bit rate mode: Constant
    Bit rate : 448 Kbps
    Channel(s) : 6 channels
    Channel positions: Front: L C R, Side: L R, LFE
    Sampling rate: 48.0 KHz
    Bit depth: 16 bits
    Compression mode : Lossy
    Stream size: 419 MiB (3%)
    Title: PL AC3 5.1
    Language : Polish
    Default: Yes
    Forced : No
    
    Audio #2
    ID : 3
    Format : DTS
    Format/Info: Digital Theater Systems
    Mode : 16
    Format settings, Endianness: Big
    Codec ID : A_DTS
    Duration : 2h 10mn
    Bit rate mode: Constant
    Bit rate : 1 509 Kbps
    Channel(s) : 6 channels
    Channel positions: Front: L C R, Side: L R, LFE
    Sampling rate: 48.0 KHz
    Bit depth: 24 bits
    Compression mode : Lossy
    Stream size: 1.38 GiB (11%)
    Title: ENG DTS 5.1
    Language : English
    Default: No
    Forced : No
    
    Text #1
    ID : 4
    Format : PGS
    Muxing mode: zlib
    Codec ID : S_HDMV/PGS
    Codec ID/Info: The same subtitle format used on BDs/HD-DVDs
    Title: PL SUB HSBS
    Language : Polish
    Default: No
    Forced : No
    
    Text #2
    ID : 5
    Format : UTF-8
    Codec ID : S_TEXT/UTF8
    Codec ID/Info: UTF-8 Plain Text
    Title: ENG Full
    Language : English
    Default: No
    Forced : No

    Part 1


    Nazwa pliku: Need.for.Speed.2014.3D.MULTI.BluRay.1080p.HSBS.x264.DTS.part1.rar
    Rozmiar pliku: 3850,00 MB
    CRC32: 04892F4C
    Liczba segmentów: 450
    Liczba mirrorów: 7
    Uploader: Leon
    Upload dla: p2m.net.pl


    Part 2


    Nazwa pliku: Need.for.Speed.2014.3D.MULTI.BluRay.1080p.HSBS.x264.DTS.part2.rar
    Rozmiar pliku: 3850,00 MB
    CRC32: 9FFA28F6
    Liczba segmentów: 457
    Liczba mirrorów: 7
    Uploader: Leon
    Upload dla: p2m.net.pl


    Part 3


    Nazwa pliku: Need.for.Speed.2014.3D.MULTI.BluRay.1080p.HSBS.x264.DTS.part3.rar
    Rozmiar pliku: 3850,00 MB
    CRC32: B31DABD5
    Liczba segmentów: 455
    Liczba mirrorów: 7
    Uploader: Leon
    Upload dla: p2m.net.pl


    Part 4


    Nazwa pliku: Need.for.Speed.2014.3D.MULTI.BluRay.1080p.HSBS.x264.DTS.part4.rar
    Rozmiar pliku: 2603,73 MB
    CRC32: BF9D8DD8
    Liczba segmentów: 309
    Liczba mirrorów: 7
    Uploader: Leon
    Upload dla: p2m.net.pl




    Part 1


    Pokaż HC

     
    Wszystko w porządku
    Zakończenie sprawdzania segmentów: 2014-08-18 05:50:24

    Part 2


    Pokaż HC

     
    Wszystko w porządku
    Zakończenie sprawdzania segmentów: 2014-08-18 05:50:24

    Part 3


    Pokaż HC

     
    Wszystko w porządku
    Zakończenie sprawdzania segmentów: 2014-08-18 05:50:24

    Part 4


    Pokaż HC

     
    Wszystko w porządku
    Zakończenie sprawdzania segmentów: 2014-08-18 05:50:24


    Ostatnio edytowane przez Markus* ; 18.08.2014 o 05:54




  2. Léon upija się na koszt 3 osób:

    11bioly  (23.08.2014), Samrat (22.01.2015), W (10.08.2014)

Zakładki

Zakładki

Uprawnienia

  • Nie możesz zakładać nowych tematów
  • Nie możesz pisać wiadomości
  • Nie możesz dodawać załączników
  • Nie możesz edytować swoich postów
  •  
  • BB Code jest Włączony
  • EmotikonyWłączony
  • [IMG] kod jest Włączony
  • [VIDEO] code is Włączony
  • HTML jest Wyłączony
  • Trackbacki : Wyłączony
  • Pingbacki : Wyłączony
  • Refbacki : Włączony