Pokaż wyniki od 1 do 1 z 1
  1. #1
    Professional Uploader Avatar Léon
    Dołączył
    16.12.2013
    Skąd
    Paryż
    Postów
    5 411
    Postawił
    33
    Piwa otrzymane
    16 402 (4 968)

    OK Kapitan Ameryka: Zimowy żołnierz | 2014 [MULTi][3D][H-SBS][1080p][BluRay]


    Kapitan Ameryka: Zimowy żołnierz (2014)
    Captain America: The Winter Soldier







    Ocena: 7,5/10
    Produkcja: USA,
    Gatunek: Akcja, Sci-Fi,
    Światowa Premiera: 2014-03-13
    Polska Premiera: 2014-03-26
    Reżyseria: Anthony RussoJoe Russo
    Zdjęcia: Trent Opaloch
    Scenariusz: Christopher MarkusStephen McFeely
    Muzyka: Henry Jackman
    Czas trwania: 2 godz. 16 min.
    Dystrybucja: Disney
    O filmie: Kapitan Ameryka: Zimowy żołnierz (2014) - Filmweb





    Chris Evans - Steve Rogers / Kapitan Ameryka
    Samuel L. Jackson - Nick Fury
    Scarlett Johansson - Natasha Romanoff / Czarna Wdowa
    Robert Redford - Alexander Pierce





    Marvel Studios, wytwórnia stojąca za sukcesem takich hitów jak "Avengers" i "Iron Man 3", przedstawia film "Kapitan Ameryka: Zimowy żołnierz". Kapitan Ameryka zostaje wplątany w sieć zagrażającej całemu światu intrygi. By ujawnić spisek superbohater łączy siły z Czarną Wdową (Scarlett Johansson). Kiedy już wreszcie kryzys wydaje się być zażegnany, niespodziewanie pojawia się nowy, potężny wróg – Zimowy żołnierz…









    Kod:
    Format : Matroska
    Format version : Version 4 / Version 2
    File size: 11.5 GiB
    Duration : 2h 15mn
    Overall bit rate : 12.1 Mbps
    Encoded date : UTC 2014-08-08 22:47:27
    Writing application: mkvmerge v6.7.0 ('Back to the Ground') 32bit built on Jan8 2014 15:03:17
    Writing library: libebml v1.3.0 + libmatroska v1.4.1
    
    Video
    ID : 1
    Format : AVC
    Format/Info: Advanced Video Codec
    Format profile : [email protected]
    Format settings, CABAC : Yes
    Format settings, ReFrames: 2 frames
    Codec ID : V_MPEG4/ISO/AVC
    Duration : 2h 15mn
    Bit rate : 9 703 Kbps
    Width: 1 920 pixels
    Height : 804 pixels
    Display aspect ratio : 2.40:1
    Frame rate mode: Constant
    Frame rate : 23.976 fps
    Color space: YUV
    Chroma subsampling : 4:2:0
    Bit depth: 8 bits
    Scan type: Progressive
    Bits/(Pixel*Frame) : 0.262
    Stream size: 9.21 GiB (80%)
    Title: FILM
    Writing library: x264 core
    Language : English
    Default: Yes
    Forced : No
    Color primaries: BT.709
    Transfer characteristics : BT.709
    Matrix coefficients: BT.709
    
    Audio #1
    ID : 2
    Format : AC-3
    Format/Info: Audio Coding 3
    Mode extension : CM (complete main)
    Format settings, Endianness: Big
    Codec ID : A_AC3
    Duration : 2h 15mn
    Bit rate mode: Constant
    Bit rate : 640 Kbps
    Channel(s) : 6 channels
    Channel positions: Front: L C R, Side: L R, LFE
    Sampling rate: 48.0 KHz
    Bit depth: 16 bits
    Compression mode : Lossy
    Stream size: 622 MiB (5%)
    Title: PL DUB AC3 5.1
    Language : Polish
    Default: Yes
    Forced : No
    
    Audio #2
    ID : 3
    Format : DTS
    Format/Info: Digital Theater Systems
    Mode : 16
    Format settings, Endianness: Big
    Codec ID : A_DTS
    Duration : 2h 15mn
    Bit rate mode: Constant
    Bit rate : 1 509 Kbps
    Channel(s) : 6 channels
    Channel positions: Front: L C R, Side: L R, LFE
    Sampling rate: 48.0 KHz
    Bit depth: 24 bits
    Compression mode : Lossy
    Stream size: 1.43 GiB (12%)
    Title: ENG DTS 5.1
    Language : English
    Default: No
    Forced : No
    
    Text
    ID : 4
    Format : PGS
    Muxing mode: zlib
    Codec ID : S_HDMV/PGS
    Codec ID/Info: The same subtitle format used on BDs/HD-DVDs
    Title: PL SUB 3D
    Language : Polish
    Default: No
    Forced : No

    Part 1


    Nazwa pliku: Captain.America.The.Winter.Soldier.2014.3D.MULTI.1080p.BluRay.Half-SBS.x264.DTS.part1.rar
    Rozmiar pliku: 3850,00 MB
    CRC32: C64606A9
    Liczba segmentów: 456
    Liczba mirrorów: 7
    Uploader: Leon
    Upload dla: p2m.net.pl


    Part 2


    Nazwa pliku: Captain.America.The.Winter.Soldier.2014.3D.MULTI.1080p.BluRay.Half-SBS.x264.DTS.part2.rar
    Rozmiar pliku: 3850,00 MB
    CRC32: 2D358478
    Liczba segmentów: 454
    Liczba mirrorów: 7
    Uploader: Leon
    Upload dla: p2m.net.pl


    Part 3


    Nazwa pliku: Captain.America.The.Winter.Soldier.2014.3D.MULTI.1080p.BluRay.Half-SBS.x264.DTS.part3.rar
    Rozmiar pliku: 3850,00 MB
    CRC32: 88AAF6F7
    Liczba segmentów: 450
    Liczba mirrorów: 8
    Uploader: Leon
    Upload dla: p2m.net.pl


    Part 4


    Nazwa pliku: Captain.America.The.Winter.Soldier.2014.3D.MULTI.1080p.BluRay.Half-SBS.x264.DTS.part4.rar
    Rozmiar pliku: 1047,88 MB
    CRC32: E79E7248
    Liczba segmentów: 124
    Liczba mirrorów: 6
    Uploader: Leon
    Upload dla: p2m.net.pl




    Part 1


    Pokaż HC

     
    Wszystko w porządku
    Zakończenie sprawdzania segmentów: 2014-08-18 05:57:45

    Part 2


    Pokaż HC

     
    Wszystko w porządku
    Zakończenie sprawdzania segmentów: 2014-08-18 05:57:45

    Part 3


    Pokaż HC

     
    Niedziałające mirrory:
    5 - oboz.ua
    Zakończenie sprawdzania segmentów: 2014-08-18 06:01:04

    Part 4


    Pokaż HC

     
    Niedziałające mirrory:
    5 - oboz.ua
    Zakończenie sprawdzania segmentów: 2014-08-18 06:00:37


    Ostatnio edytowane przez Markus* ; 18.08.2014 o 06:04




  2. Léon upija się na koszt 5 osób:

    11bioly  (23.08.2014), Anonimowy Brzdąc  (31.08.2014), bedi128 (12.08.2014), marcco (9.09.2014), W (10.08.2014)

Zakładki

Zakładki

Uprawnienia

  • Nie możesz zakładać nowych tematów
  • Nie możesz pisać wiadomości
  • Nie możesz dodawać załączników
  • Nie możesz edytować swoich postów
  •  
  • BB Code jest Włączony
  • EmotikonyWłączony
  • [IMG] kod jest Włączony
  • [VIDEO] code is Włączony
  • HTML jest Wyłączony
  • Trackbacki : Wyłączony
  • Pingbacki : Wyłączony
  • Refbacki : Włączony