Pokaż wyniki od 1 do 1 z 1
  1. #1
    Professional Uploader Avatar Léon
    Dołączył
    16.12.2013
    Skąd
    Paryż
    Postów
    5 411
    Postawił
    33
    Piwa otrzymane
    16 402 (4 968)

    OK Pan Peabody i Sherman | 2014 [MULTi][3D][H-SBS][1080p][BluRay]


    Pan Peabody i Sherman (2014)
    Mr. Peabody & Sherman







    Ocena: 7,0/10
    Produkcja: USA,
    Gatunek: Animacja, Familijny, Przygodowy,
    Światowa Premiera: 2014-02-07
    Polska Premiera: 2014-03-07
    Reżyseria: Rob Minkoff
    Zdjęcia: b/d
    Scenariusz: Craig Wright
    Muzyka: Danny Elfman
    Czas trwania: 1 godz. 32 min.
    Dystrybucja: Imperial - Cinepix
    O filmie: Pan Peabody i Sherman (2014) - Filmweb





    Artur Żmijewski - Pan Peabody
    Franciszek Dziduch - Sherman
    Pola Bychawska - Penny Peterson
    Monika Pikuła - Patty Peterson





    Pan Peabody to najmądrzejszy pies na świecie, naukowiec-geniusz, który wynalazł wehikuł czasu, laureat nagrody Nobla i doradca głów państw. Gdy jego podopieczny, chłopiec o imieniu Sherman wyrusza w podróż wehikułem czasu, najsłynniejsze wydarzenia z historii wymykają się spod kontroli, a efektem jest wielka katastrofa i równie wielka dawka humoru. Niezwykły pies i jego pan muszą załatać dziurę w czasie, zanim nasz świat zmieni się raz na zawsze.









    Kod:
    Format : Matroska
    Format version : Version 4 / Version 2
    File size: 9.90 GiB
    Duration : 1h 32mn
    Overall bit rate mode: Variable
    Overall bit rate : 15.3 Mbps
    Encoded date : UTC 2014-08-10 19:50:33
    Writing application: mkvmerge v6.7.0 ('Back to the Ground') 32bit built on Jan8 2014 15:03:17
    Writing library: libebml v1.3.0 + libmatroska v1.4.1
    
    Video
    ID : 1
    Format : AVC
    Format/Info: Advanced Video Codec
    Format profile : [email protected]
    MultiView_Count: 2
    MultiView_Layout : Side by Side (left eye first)
    Format settings, CABAC : Yes
    Format settings, ReFrames: 4 frames
    Codec ID : V_MPEG4/ISO/AVC
    Duration : 1h 32mn
    Width: 1 920 pixels
    Height : 1 080 pixels
    Display aspect ratio : 16:9
    Frame rate mode: Constant
    Frame rate : 23.976 fps
    Color space: YUV
    Chroma subsampling : 4:2:0
    Bit depth: 8 bits
    Scan type: Progressive
    Title: FILM
    Writing library: x264
    Language : English
    Default: Yes
    Forced : No
    Color primaries: BT.709
    Transfer characteristics : BT.709
    Matrix coefficients: BT.709
    
    Audio #1
    ID : 2
    Format : AC-3
    Format/Info: Audio Coding 3
    Mode extension : CM (complete main)
    Format settings, Endianness: Big
    Codec ID : A_AC3
    Duration : 1h 32mn
    Bit rate mode: Constant
    Bit rate : 448 Kbps
    Channel(s) : 6 channels
    Channel positions: Front: L C R, Side: L R, LFE
    Sampling rate: 48.0 KHz
    Bit depth: 16 bits
    Compression mode : Lossy
    Stream size: 296 MiB (3%)
    Title: PL DUB AC3 5.1
    Language : Polish
    Default: Yes
    Forced : No
    
    Audio #2
    ID : 3
    Format : DTS
    Format/Info: Digital Theater Systems
    Format profile : MA / Core
    Mode : 16
    Format settings, Endianness: Big
    Codec ID : A_DTS
    Duration : 1h 32mn
    Bit rate mode: Variable
    Bit rate : Unknown / 1 509 Kbps
    Channel(s) : 8 channels / 6 channels
    Channel positions: Front: L C R, Side: L R, Back: L R, LFE / Front: L C R, Side: L R, LFE
    Sampling rate: 48.0 KHz
    Bit depth: 24 bits
    Compression mode : Lossless / Lossy
    Title: ENG DTS-HD 7.1
    Language : English
    Default: No
    Forced : No
    
    Audio #3
    ID : 4
    Format : AC-3
    Format/Info: Audio Coding 3
    Mode extension : CM (complete main)
    Format settings, Endianness: Big
    Codec ID : A_AC3
    Duration : 1h 32mn
    Bit rate mode: Constant
    Bit rate : 640 Kbps
    Channel(s) : 6 channels
    Channel positions: Front: L C R, Side: L R, LFE
    Sampling rate: 48.0 KHz
    Bit depth: 16 bits
    Compression mode : Lossy
    Stream size: 423 MiB (4%)
    Title: ENG AC3 5.1
    Language : English
    Default: No
    Forced : No
    
    Text
    ID : 5
    Format : PGS
    Muxing mode: zlib
    Codec ID : S_HDMV/PGS
    Codec ID/Info: The same subtitle format used on BDs/HD-DVDs
    Title: PL SUB HSBS
    Language : Polish
    Default: No
    Forced : No

    Part 1


    Nazwa pliku: Mr.Peabody.and.Sherman.3D.MULTI.1080p.BluRay.x264.H-SBS.DTS-HD.7.1.part1.rar
    Rozmiar pliku: 3850,00 MB
    CRC32: A21F053F
    Liczba segmentów: 452
    Liczba mirrorów: 9
    Uploader: Leon Zawodowiec
    Upload dla: p2m.net.pl


    Part 2


    Nazwa pliku: Mr.Peabody.and.Sherman.3D.MULTI.1080p.BluRay.x264.H-SBS.DTS-HD.7.1.part2.rar
    Rozmiar pliku: 3850,00 MB
    CRC32: 2111D94F
    Liczba segmentów: 454
    Liczba mirrorów: 9
    Uploader: Leon Zawodowiec
    Upload dla: p2m.net.pl


    Part 3


    Nazwa pliku: Mr.Peabody.and.Sherman.3D.MULTI.1080p.BluRay.x264.H-SBS.DTS-HD.7.1.part3.rar
    Rozmiar pliku: 3200,35 MB
    CRC32: E3A5A84A
    Liczba segmentów: 378
    Liczba mirrorów: 9
    Uploader: Leon Zawodowiec
    Upload dla: p2m.net.pl




    Part 1


    Pokaż HC

     
    Wszystko w porządku
    Zakończenie sprawdzania segmentów: 2014-08-18 06:10:42

    Part 2


    Pokaż HC

     
    Wszystko w porządku
    Zakończenie sprawdzania segmentów: 2014-08-18 06:10:42

    Part 3


    Pokaż HC

     
    Wszystko w porządku
    Zakończenie sprawdzania segmentów: 2014-08-18 06:10:42


    Ostatnio edytowane przez Markus* ; 18.08.2014 o 06:13




  2. Léon upija się na koszt 5 osób:

    bedi128 (12.08.2014), cezar116  (13.08.2014), rafal23 (30.12.2014), W (12.08.2014), warthan (17.04.2016)

Zakładki

Zakładki

Uprawnienia

  • Nie możesz zakładać nowych tematów
  • Nie możesz pisać wiadomości
  • Nie możesz dodawać załączników
  • Nie możesz edytować swoich postów
  •  
  • BB Code jest Włączony
  • EmotikonyWłączony
  • [IMG] kod jest Włączony
  • [VIDEO] code is Włączony
  • HTML jest Wyłączony
  • Trackbacki : Wyłączony
  • Pingbacki : Wyłączony
  • Refbacki : Włączony