Pokaż wyniki od 1 do 1 z 1
  1. #1
    Professional Uploader Avatar Léon
    Dołączył
    16.12.2013
    Skąd
    Paryż
    Postów
    5 411
    Postawił
    33
    Piwa otrzymane
    16 402 (4 968)

    OK Niesamowity Spider-Man 2 | 2014 [3D][H-SBS][MULTi][1080p][BluRay]


    Niesamowity Spider-Man 2 (2014)
    The Amazing Spider-Man 2







    Ocena: 7,0/10
    Produkcja: USA,
    Gatunek: Akcja, Sci-Fi,
    Światowa Premiera: 2014-04-10
    Polska Premiera: 2014-04-25
    Reżyseria: Marc Webb
    Zdjęcia: Daniel Mindel
    Scenariusz: Alex KurtzmanRoberto OrciJeff Pinkner
    Muzyka: Hans Zimmer , Pharrell Williams
    Czas trwania: 2 godz. 22 min.
    Dystrybucja: United International Pictures Sp z o.o.
    O filmie: Niesamowity Spider-Man 2 (2014) - Filmweb





    Andrew Garfield - Spider-Man / Peter Parker
    Emma Stone - Gwen Stacy
    Jamie Foxx - Elektro / Max Dillon
    Dane DeHaan - Zielony Goblin / Harry Osborn





    Zbliża się zakończenie szkoły, ale pomimo tego Peter Parker (Andrew Garfield) ma ważniejsze sprawy na głowie. Jego życie utknęło pomiędzy ściganiem złych facetów jako Spider-Man, a spotkaniami z ukochaną Gwen Stacy (Emma Stone). Peter nie zapomniał o obietnicy złożonej ojcu dziewczyny, jednak nie potrafi jej dotrzymać. Wszystko zmienia się, gdy w mieście pojawia się nowy złoczyńca, Electro (Jamie Foxx)...









    Kod:
    Format : Matroska
    Format version : Version 4 / Version 2
    File size: 13.0 GiB
    Duration : 2h 21mn
    Overall bit rate : 13.1 Mbps
    
    Encoded date : UTC 2014-08-27 13:08:24
    Writing application: mkvmerge v6.7.0 ('Back to the Ground') 32bit built on Jan8 2014 15:03:17
    Writing library: libebml v1.3.0 + libmatroska v1.4.1
    
    Video
    ID : 1
    Format : AVC
    Format/Info: Advanced Video Codec
    Format profile : [email protected]
    MultiView_Count: 2
    MultiView_Layout : Side by Side (left eye first)
    Format settings, CABAC : Yes
    Format settings, ReFrames: 4 frames
    Codec ID : V_MPEG4/ISO/AVC
    Duration : 2h 21mn
    Bit rate : 10.7 Mbps
    Width: 1 920 pixels
    Height : 1 080 pixels
    Display aspect ratio : 16:9
    Frame rate mode: Constant
    Frame rate : 23.976 fps
    Color space: YUV
    Chroma subsampling : 4:2:0
    Bit depth: 8 bits
    Scan type: Progressive
    Bits/(Pixel*Frame) : 0.215
    Stream size: 10.6 GiB (82%)
    Title: FILM 3D
    Writing library: x264
    Language : English
    Default: Yes
    Forced : No
    
    Audio #1
    ID : 2
    Format : AC-3
    Format/Info: Audio Coding 3
    Mode extension : CM (complete main)
    Format settings, Endianness: Big
    Codec ID : A_AC3
    Duration : 2h 21mn
    Bit rate mode: Constant
    Bit rate : 640 Kbps
    Channel(s) : 6 channels
    Channel positions: Front: L C R, Side: L R, LFE
    Sampling rate: 48.0 KHz
    Bit depth: 16 bits
    Compression mode : Lossy
    Stream size: 648 MiB (5%)
    Title: PL DUB AC3 5.1
    Language : Polish
    Default: Yes
    Forced : No
    
    Audio #2
    ID : 3
    Format : DTS
    Format/Info: Digital Theater Systems
    Mode : 16
    Format settings, Endianness: Big
    Codec ID : A_DTS
    Duration : 2h 21mn
    Bit rate mode: Constant
    Bit rate : 1 509 Kbps
    Channel(s) : 6 channels
    Channel positions: Front: L C R, Side: L R, LFE
    Sampling rate: 48.0 KHz
    Bit depth: 16 bits
    Compression mode : Lossy
    Stream size: 1.49 GiB (12%)
    Title: ENG DTS 5.1
    Language : English
    Default: No
    Forced : No
    
    Text #1
    ID : 4
    Format : PGS
    Muxing mode: zlib
    Codec ID : S_HDMV/PGS
    Codec ID/Info: The same subtitle format used on BDs/HD-DVDs
    Title: PL SUB 3D
    Language : Polish
    Default: No
    Forced : No
    
    Text #2
    ID : 5
    Format : VobSub
    Muxing mode: zlib
    Codec ID : S_VOBSUB
    Codec ID/Info: The same subtitle format used on DVDs
    Title: English (3D PGS)
    Language : English
    Default: No
    Forced : No
    
    Text #3
    ID : 6
    Format : VobSub
    Muxing mode: zlib
    Codec ID : S_VOBSUB
    Codec ID/Info: The same subtitle format used on DVDs
    Title: English (3D PGS)
    Language : English
    Default: No
    Forced : No
    
    Text #4
    ID : 7
    Format : VobSub
    Muxing mode: zlib
    Codec ID : S_VOBSUB
    Codec ID/Info: The same subtitle format used on DVDs
    Title: English (3D PGS)
    Language : English
    Default: No
    Forced : No

    Part 1


    Nazwa pliku: The.Amazing.Spider-Man.2.2014.3D.MULTI.1080p.BluRay.HSBS.x264.DTS.part1.rar
    Rozmiar pliku: 3850,00 MB
    CRC32: D9E2F3F7
    Liczba segmentów: 451
    Liczba mirrorów: 6
    Uploader: Leon Zawodowiec
    Upload dla: p2m.net.pl


    Part 2


    Nazwa pliku: The.Amazing.Spider-Man.2.2014.3D.MULTI.1080p.BluRay.HSBS.x264.DTS.part2.rar
    Rozmiar pliku: 3850,00 MB
    CRC32: 05BA4D6E
    Liczba segmentów: 454
    Liczba mirrorów: 6
    Uploader: Leon Zawodowiec
    Upload dla: p2m.net.pl


    Part 3


    Nazwa pliku: The.Amazing.Spider-Man.2.2014.3D.MULTI.1080p.BluRay.HSBS.x264.DTS.part3.rar
    Rozmiar pliku: 3850,00 MB
    CRC32: 76063AD8
    Liczba segmentów: 446
    Liczba mirrorów: 6
    Uploader: Leon Zawodowiec
    Upload dla: p2m.net.pl


    Part 4


    Nazwa pliku: The.Amazing.Spider-Man.2.2014.3D.MULTI.1080p.BluRay.HSBS.x264.DTS.part4.rar
    Rozmiar pliku: 2760,75 MB
    CRC32: 2D45B45B
    Liczba segmentów: 326
    Liczba mirrorów: 6
    Uploader: Leon Zawodowiec
    Upload dla: p2m.net.pl




    Part 1


    Pokaż HC

     
    Wszystko w porządku
    Zakończenie sprawdzania segmentów: 2014-08-29 05:32:17

    Part 2


    Pokaż HC

     
    Wszystko w porządku
    Zakończenie sprawdzania segmentów: 2014-08-29 05:32:17

    Part 3


    Pokaż HC

     
    Wszystko w porządku
    Zakończenie sprawdzania segmentów: 2014-08-29 05:32:17

    Part 4


    Pokaż HC

     
    Wszystko w porządku
    Zakończenie sprawdzania segmentów: 2014-08-29 05:32:17


    Ostatnio edytowane przez Markus* ; 29.08.2014 o 05:35




  2. Léon upija się na koszt 5 osób:

    bedi128 (1.09.2014), melanz123 (15.02.2015), siakistaki (2.09.2014), Silver17 (28.08.2014), W (28.08.2014)

Zakładki

Zakładki

Uprawnienia

  • Nie możesz zakładać nowych tematów
  • Nie możesz pisać wiadomości
  • Nie możesz dodawać załączników
  • Nie możesz edytować swoich postów
  •  
  • BB Code jest Włączony
  • EmotikonyWłączony
  • [IMG] kod jest Włączony
  • [VIDEO] code is Włączony
  • HTML jest Wyłączony
  • Trackbacki : Wyłączony
  • Pingbacki : Wyłączony
  • Refbacki : Włączony