Pokaż wyniki od 1 do 1 z 1
  1. #1
    Professional Uploader Avatar Léon
    Dołączył
    16.12.2013
    Skąd
    Paryż
    Postów
    5 411
    Postawił
    33
    Piwa otrzymane
    16 402 (4 968)

    OK Godzilla | 2014 [3D][H-SBS][MULTi][1080p][BluRay]


    Godzilla (2014)







    Ocena: 6,3/10
    Produkcja: Japonia, USA,
    Gatunek: Akcja, Sci-Fi,
    Światowa Premiera: 2014-05-08
    Polska Premiera: 2014-05-16
    Reżyseria: Gareth Edwards
    Zdjęcia: Seamus McGarvey
    Scenariusz: Max Borenstein
    Muzyka: Alexandre Desplat
    Czas trwania: 2 godz. 3 min.
    Dystrybucja: Warner Bros. Entertainment Polska Sp. z o. o.
    O filmie: Godzilla (2014) - Filmweb





    Aaron Taylor-Johnson - Ford Brody
    Ken Watanabe - Dr Ichiro Serizawa
    Bryan Cranston - Joe Brody
    Elizabeth Olsen - Elle Brody





    Zapierająca dech w piersiach reaktywacja historii kultowej Godzilli — postaci zrodzonej w wytwórni Toho. Tworzony z rozmachem film przygodowy, który pokazuje walkę najsławniejszego na świecie potwora przeciwko złym stworzeniom, które czerpią siłę z arogancji ludzkości wobec nauki i zagrażają światu.









    Kod:
    Format : Matroska
    Format version : Version 3 / Version 2
    File size: 8.98 GiB
    Duration : 2h 3mn
    Overall bit rate : 10.4 Mbps
    Encoded date : UTC 2014-09-10 11:58:27
    Writing application: mkvmerge v5.2.1 ('A Far Off Place') built on Jan2 2012 23:21:10
    Writing library: libebml v1.2.3 + libmatroska v1.3.0
    
    Video
    ID : 1
    Format : AVC
    Format/Info: Advanced Video Codec
    Format profile : [email protected]
    MultiView_Count: 2
    MultiView_Layout : Side by Side (left eye first)
    Format settings, CABAC : Yes
    Format settings, ReFrames: 4 frames
    Muxing mode: Header stripping
    Codec ID : V_MPEG4/ISO/AVC
    Duration : 2h 3mn
    Bit rate : 8 276 Kbps
    Width: 1 920 pixels
    Height : 1 080 pixels
    Display aspect ratio : 16:9
    Frame rate mode: Constant
    Frame rate : 23.976 fps
    Color space: YUV
    Chroma subsampling : 4:2:0
    Bit depth: 8 bits
    Scan type: Progressive
    Bits/(Pixel*Frame) : 0.166
    Stream size: 7.12 GiB (79%)
    Title: FILM H-SBS
    Writing library: x264 
    Language : English
    Default: Yes
    Forced : No
    
    Audio #1
    ID : 2
    Format : AC-3
    Format/Info: Audio Coding 3
    Mode extension : CM (complete main)
    Format settings, Endianness: Big
    Muxing mode: Header stripping
    Codec ID : A_AC3
    Duration : 2h 3mn
    Bit rate mode: Constant
    Bit rate : 448 Kbps
    Channel(s) : 6 channels
    Channel positions: Front: L C R, Side: L R, LFE
    Sampling rate: 48.0 KHz
    Bit depth: 16 bits
    Compression mode : Lossy
    Stream size: 395 MiB (4%)
    Title: PL AC3 5.1
    Language : Polish
    Default: Yes
    Forced : No
    
    Audio #2
    ID : 3
    Format : DTS
    Format/Info: Digital Theater Systems
    Mode : 16
    Format settings, Endianness: Big
    Muxing mode: Header stripping
    Codec ID : A_DTS
    Duration : 2h 3mn
    Bit rate mode: Constant
    Bit rate : 1 509 Kbps
    Channel(s) : 6 channels
    Channel positions: Front: L C R, Side: L R, LFE
    Sampling rate: 48.0 KHz
    Bit depth: 24 bits
    Compression mode : Lossy
    Stream size: 1.30 GiB (14%)
    Title: English DTS 5.1
    Language : English
    Default: No
    Forced : No
    
    Text #1
    ID : 4
    Format : PGS
    Muxing mode: zlib
    Codec ID : S_HDMV/PGS
    Codec ID/Info: The same subtitle format used on BDs/HD-DVDs
    Title: PL SUB 3D H-SBS
    Language : Polish
    Default: No
    Forced : No
    
    Text #2
    ID : 5
    Format : VobSub
    Muxing mode: zlib
    Codec ID : S_VOBSUB
    Codec ID/Info: The same subtitle format used on DVDs
    Title: English (3D PGS)
    Language : English
    Default: No
    Forced : No
    
    Text #3
    ID : 6
    Format : UTF-8
    Codec ID : S_TEXT/UTF8
    Codec ID/Info: UTF-8 Plain Text
    Title: PL SUB
    Language : Polish
    Default: No
    Forced : No

    Part 1


    Nazwa pliku: Godzilla.2014.3D.MULTI.1080p.BluRay.HSBS.x264.DTS.part1.rar
    Rozmiar pliku: 3850,00 MB
    CRC32: EEE8102B
    Liczba segmentów: 455
    Liczba mirrorów: 6
    Uploader: Leon Zawodowiec
    Upload dla: p2m.net.pl


    Part 2


    Nazwa pliku: Godzilla.2014.3D.MULTI.1080p.BluRay.HSBS.x264.DTS.part2.rar
    Rozmiar pliku: 3850,00 MB
    CRC32: 8A2FD4CA
    Liczba segmentów: 456
    Liczba mirrorów: 6
    Uploader: Leon Zawodowiec
    Upload dla: p2m.net.pl


    Part 3


    Nazwa pliku: Godzilla.2014.3D.MULTI.1080p.BluRay.HSBS.x264.DTS.part3.rar
    Rozmiar pliku: 2188,61 MB
    CRC32: 5DF92BDD
    Liczba segmentów: 257
    Liczba mirrorów: 6
    Uploader: Leon Zawodowiec
    Upload dla: p2m.net.pl




    Part 1


    Pokaż HC

     
    Wszystko w porządku
    Zakończenie sprawdzania segmentów: 2014-09-29 18:41:03

    Part 2


    Pokaż HC

     
    Wszystko w porządku
    Zakończenie sprawdzania segmentów: 2014-09-29 18:41:03

    Part 3


    Pokaż HC

     
    Wszystko w porządku
    Zakończenie sprawdzania segmentów: 2014-09-29 18:41:03


    Ostatnio edytowane przez Markus* ; 29.09.2014 o 18:45




  2. Léon upija się na koszt 7 osób:

    11bioly  (25.01.2015), ankka24 (22.09.2015), Anonimowy Brzdąc  (10.10.2014), cosm095 (24.07.2016), marcco (23.12.2014), RoosS (15.09.2014), Silver17 (12.09.2014)

Zakładki

Zakładki

Uprawnienia

  • Nie możesz zakładać nowych tematów
  • Nie możesz pisać wiadomości
  • Nie możesz dodawać załączników
  • Nie możesz edytować swoich postów
  •  
  • BB Code jest Włączony
  • EmotikonyWłączony
  • [IMG] kod jest Włączony
  • [VIDEO] code is Włączony
  • HTML jest Wyłączony
  • Trackbacki : Wyłączony
  • Pingbacki : Wyłączony
  • Refbacki : Włączony