Pokaż wyniki od 1 do 1 z 1
  1. #1
    VIP Avatar Mikson
    Dołączył
    22.05.2010
    Skąd
    Nibylandia
    Postów
    67
    Postawił
    17
    Piwa otrzymane
    213 (76)

    OK Na skraju jutra | 2014 | [3D] [MULTI] [1080p] [BluRay] [SBS]


    Na skraju jutra (2014)
    Edge of Tomorrow










    Ocena: 7,5/10
    Produkcja: Australia, USA,
    Gatunek: Akcja, Sci-Fi,
    Światowa Premiera: 2014-05-28
    Polska Premiera: 2014-06-06
    Reżyseria: Doug Liman
    Zdjęcia: Dion Beebe
    Scenariusz: Christopher McQuarrieJez ButterworthJohn-Henry Butterworth
    Muzyka: Christophe Beck
    Czas trwania: 1 godz. 53 min.
    Dystrybucja: Warner Bros. Entertainment Polska Sp. z o. o.
    O filmie: Na skraju jutra (2014) - Filmweb







    Tom Cruise - Cage
    Emily Blunt - Rita
    Brendan Gleeson - Generał Brigham
    Bill Paxton - Starszy sierżant Farell







    Akcja filmu rozgrywa się w niedalekiej przyszłości, w której rasa obcych, zwanych Mimikami (Mimics), przypuściła na Ziemię bezlitosny atak i rozpanoszyła niczym pszczeli rój, obracając w ruinę całe miasta i zostawiając za sobą miliony ludzkich ofiar. Żadna armia na świecie nie może dorównać szybkością, okrucieństwem czy pozorną zdolnością przewidywania przyszłości uzbrojonym po zęby wojownikom z kosmosu, jak również ich dowódcom, którzy wydają rozkazy telepatycznie. Jednak[span class="fullText hide"]nadszedł czas, kiedy armie całego świata połączyły swoje siły, by stanąć do decydującej walki na śmierć i życie przeciwko napastnikom z kosmosu. Podpułkownik Bill Cage (Cruise), żołnierz, który jeszcze nigdy nie znalazł się w ogniu walki, zostaje bezceremonialnie zdegradowany i rzucony – bez odpowiedniego szkolenia i sprzętu – w sam środek, jak się później okazuje, czegoś więcej niż tylko misji samobójczej. Cage ginie podczas swojej pierwszej misji, zabijając jednego z obcych samców Alfa. Jednak, dziwnym zbiegiem okoliczności, budzi się do życia rankiem w dniu swojej śmierci i jest zmuszony walczyć i umierać... bez końca. Bezpośredni kontakt fizyczny z kosmitą spowodował, że Cage znalazł się w pętli czasowej i został skazany na przeżywanie tej samej brutalnej walki raz po raz. Jednak z każdym kolejnym powrotem Cage staje się silniejszy, sprytniejszy i jest w stanie coraz skuteczniej stawiać opór przybyszom z kosmosu. Towarzyszy mu bojowniczka Sił Specjalnych, Rita Vrataski (Blunt), która dokonała największych spustoszeń w oddziałach obcych spośród wszystkich walczących na Ziemi. Kiedy Cage i Rita decydują się podjąć walkę z kosmitami, każda przeżywana od nowa bitwa staje się kolejną okazją do znalezienia sposobu na unicestwienie najeźdźców z kosmosu i ocalenie Ziemi.













    Kod:
    Format : Matroska
    Format version : Version 4 / Version 2
    File size: 8.27 GiB
    Duration : 1h 53mn
    Overall bit rate : 10.4 Mbps
    Movie name : WiZARDS 3D HSBS
    Encoded date : UTC 2014-09-19 16:22:38
    Writing application: mkvmerge v6.7.0 ('Back to the Ground') 32bit built on Jan8 2014 15:03:17
    Writing library: libebml v1.3.0 + libmatroska v1.4.1
    
    
    Video
    ID : 1
    Format : AVC
    Format/Info: Advanced Video Codec
    Format profile : [email protected]
    Format settings, CABAC : Yes
    Format settings, ReFrames: 5 frames
    Codec ID : V_MPEG4/ISO/AVC
    Duration : 1h 53mn
    Bit rate : 8 508 Kbps
    Width: 1 920 pixels
    Height : 800 pixels
    Display aspect ratio : 2.40:1
    Frame rate mode: Constant
    Frame rate : 23.976 fps
    Color space: YUV
    Chroma subsampling : 4:2:0
    Bit depth: 8 bits
    Scan type: Progressive
    Bits/(Pixel*Frame) : 0.231
    Stream size: 6.60 GiB (80%)
    Title: FILM
    Writing library: x264 core 142 r2453 ea0ca51
    Encoding settings: cabac=1 / ref=5 / deblock=1:0:0 / analyse=0x3:0x133 / me=umh / subme=7 / psy=1 / psy_rd=1.00:0.00 / mixed_ref=1 / me_range=16 / chroma_me=1 / trellis=1 / 8x8dct=1 / cqm=0 / deadzone=21,11 / fast_pskip=0 / chroma_qp_offset=-2 / threads=18 / lookahead_threads=3 / sliced_threads=0 / nr=0 / decimate=1 / interlaced=0 / bluray_compat=0 / constrained_intra=0 / bframes=3 / b_pyramid=2 / b_adapt=1 / b_bias=0 / direct=1 / weightb=1 / open_gop=0 / weightp=2 / keyint=250 / keyint_min=23 / scenecut=40 / intra_refresh=0 / rc_lookahead=40 / rc=2pass / mbtree=1 / bitrate=8508 / ratetol=1.0 / qcomp=0.60 / qpmin=0 / qpmax=69 / qpstep=4 / cplxblur=20.0 / qblur=0.5 / ip_ratio=1.40 / aq=1:1.00
    Language : English
    Default: Yes
    Forced : No
    
    
    Audio #1
    ID : 2
    Format : AC-3
    Format/Info: Audio Coding 3
    Mode extension : CM (complete main)
    Format settings, Endianness: Big
    Codec ID : A_AC3
    Duration : 1h 53mn
    Bit rate mode: Constant
    Bit rate : 384 Kbps
    Channel(s) : 6 channels
    Channel positions: Front: L C R, Side: L R, LFE
    Sampling rate: 48.0 KHz
    Bit depth: 16 bits
    Compression mode : Lossy
    Stream size: 312 MiB (4%)
    Title: PL AC3 5.1
    Language : Polish
    Default: Yes
    Forced : No
    
    
    Audio #2
    ID : 3
    Format : DTS
    Format/Info: Digital Theater Systems
    Mode : 16
    Format settings, Endianness: Big
    Codec ID : A_DTS
    Duration : 1h 53mn
    Bit rate mode: Constant
    Bit rate : 1 509 Kbps
    Channel(s) : 6 channels
    Channel positions: Front: L C R, Side: L R, LFE
    Sampling rate: 48.0 KHz
    Bit depth: 24 bits
    Compression mode : Lossy
    Stream size: 1.20 GiB (14%)
    Title: ENG DTS 5.1
    Language : English
    Default: No
    Forced : No
    
    
    Text #1
    ID : 4
    Format : PGS
    Muxing mode: zlib
    Codec ID : S_HDMV/PGS
    Codec ID/Info: The same subtitle format used on BDs/HD-DVDs
    Title: PL SUB 3D HSBS
    Language : Polish
    Default: No
    Forced : No
    
    
    Text #2
    ID : 5
    Format : UTF-8
    Codec ID : S_TEXT/UTF8
    Codec ID/Info: UTF-8 Plain Text
    Title: ENG SUB 2D
    Language : English
    Default: No
    Forced : No

    Part 1


    Nazwa pliku: Edge.Of.Tomorrow.2014.3D.MULTI.1080p.BluRay.H.SBSx264.DTS.part1.rar
    Rozmiar pliku: 3850,00 MB
    CRC32: 8D795A15
    Liczba segmentów: 452
    Liczba mirrorów: 6
    Uploader: Mikson
    Upload dla: p2m.net.pl



    Part 2


    Nazwa pliku: Edge.Of.Tomorrow.2014.3D.MULTI.1080p.BluRay.H.SBSx264.DTS.part2.rar
    Rozmiar pliku: 3850,00 MB
    CRC32: 3DD57EE4
    Liczba segmentów: 452
    Liczba mirrorów: 6
    Uploader: Mikson
    Upload dla: p2m.net.pl



    Part 3


    Nazwa pliku: Edge.Of.Tomorrow.2014.3D.MULTI.1080p.BluRay.H.SBSx264.DTS.part3.rar
    Rozmiar pliku: 1395,87 MB
    CRC32: 611C6D61
    Liczba segmentów: 165
    Liczba mirrorów: 6
    Uploader: Mikson
    Upload dla: p2m.net.pl






    Part 1


    Pokaż HC

     
    Wszystko w porządku
    Zakończenie sprawdzania segmentów: 2014-09-30 04:49:43


    Part 2


    Pokaż HC

     
    Wszystko w porządku
    Zakończenie sprawdzania segmentów: 2014-09-30 04:49:43


    Part 3


    Pokaż HC

     
    Wszystko w porządku
    Zakończenie sprawdzania segmentów: 2014-09-30 04:49:43


    Ostatnio edytowane przez Markus* ; 30.09.2014 o 04:53

  2. Mikson upija się na koszt 14 osób:

    11bioly  (25.01.2015), Anonimowy Brzdąc  (10.10.2014), astra1 (6.11.2014), cezar116  (24.10.2014), cosm095 (19.07.2016), Dantex (27.09.2014), elektryk11 (22.09.2014), paweles (13.10.2014), rafal23 (3.12.2014), raziel18 (28.10.2014), siakistaki (20.09.2014), stolarczyk (4.01.2015), W (20.09.2014), wbw (23.09.2014)

Zakładki

Zakładki

Uprawnienia

  • Nie możesz zakładać nowych tematów
  • Nie możesz pisać wiadomości
  • Nie możesz dodawać załączników
  • Nie możesz edytować swoich postów
  •  
  • BB Code jest Włączony
  • EmotikonyWłączony
  • [IMG] kod jest Włączony
  • [VIDEO] code is Włączony
  • HTML jest Wyłączony
  • Trackbacki : Wyłączony
  • Pingbacki : Wyłączony
  • Refbacki : Włączony