Pokaż wyniki od 1 do 1 z 1
  1. #1
    Professional Uploader Avatar Léon
    Dołączył
    16.12.2013
    Skąd
    Paryż
    Postów
    5 411
    Postawił
    33
    Piwa otrzymane
    16 402 (4 968)

    PL & ENG Czarownica | 2014 [3D][MULTi][1080p][BluRay][H-SBS]


    Czarownica (2014)
    Maleficent







    Ocena: 7,5/10
    Produkcja: USA,
    Gatunek: Familijny, Fantasy,
    Światowa Premiera: 2014-05-28
    Polska Premiera: 2014-05-30
    Reżyseria: Robert Stromberg
    Zdjęcia: Dean Semler
    Scenariusz: Linda Woolverton
    Muzyka: James Newton Howard
    Czas trwania: 1 godz. 37 min.
    Dystrybucja: Disney
    O filmie: Czarownica (2014) - Filmweb





    Angelina Jolie - Maleficent
    Elle Fanning - Aurora
    Sharlto Copley - Stefan
    Lesley Manville - Flittle





    Zrealizowany z wielkim rozmachem film "Czarownica", z udziałem Angeliny Jolie w roli tytułowej, został zainspirowany postacią znaną z disneyowskiej "Śpiącej królewny" – Diaboliną. Tytułowa Czarownica była niegdyś piękną i dobrą dziewczyną. Jej radosną młodość przerwała wojna, podczas której bohaterka z oddaniem broniła swojej ojczyzny. Jednak zdrada, której doświadczyła, zmieniła jej czyste serce w kamień... Żądna zemsty rzuca klątwę na Aurorę – nowonarodzoną córkę następcy tronu wrogiego królestwa.









    Kod:
    Format : Matroska
    Format version : Version 4 / Version 2
    File size: 14.5 GiB
    Duration : 1h 37mn
    Overall bit rate mode: Variable
    Overall bit rate : 21.4 Mbps
    Encoded date : UTC 2014-10-03 00:07:30
    Writing application: mkvmerge v6.7.0 ('Back to the Ground') 32bit built on Jan8 2014 15:03:17
    Writing library: libebml v1.3.0 + libmatroska v1.4.1
    
    Video
    ID : 1
    Format : AVC
    Format/Info: Advanced Video Codec
    Format profile : [email protected]
    Format settings, CABAC : Yes
    Format settings, ReFrames: 2 frames
    Codec ID : V_MPEG4/ISO/AVC
    Duration : 1h 37mn
    Nominal bit rate : 16.0 Mbps
    Width: 1 920 pixels
    Height : 1 080 pixels
    Display aspect ratio : 16:9
    Frame rate mode: Constant
    Frame rate : 23.976 fps
    Color space: YUV
    Chroma subsampling : 4:2:0
    Bit depth: 8 bits
    Scan type: Progressive
    Bits/(Pixel*Frame) : 0.322
    Title: FILM 3D
    Writing library: x264 
    Language : English
    Default: Yes
    Forced : No
    Color primaries: BT.709
    Transfer characteristics : BT.709
    Matrix coefficients: BT.709
    
    Audio #1
    ID : 2
    Format : AC-3
    Format/Info: Audio Coding 3
    Mode extension : CM (complete main)
    Format settings, Endianness: Big
    Codec ID : A_AC3
    Duration : 1h 37mn
    Bit rate mode: Constant
    Bit rate : 384 Kbps
    Channel(s) : 6 channels
    Channel positions: Front: L C R, Side: L R, LFE
    Sampling rate: 48.0 KHz
    Bit depth: 16 bits
    Compression mode : Lossy
    Stream size: 268 MiB (2%)
    Title: PL DUB AC3 5.1
    Language : Polish
    Default: Yes
    Forced : No
    
    Audio #2
    ID : 3
    Format : DTS
    Format/Info: Digital Theater Systems
    Format profile : MA / Core
    Mode : 16
    Format settings, Endianness: Big
    Codec ID : A_DTS
    Duration : 1h 37mn
    Bit rate mode: Variable
    Bit rate : Unknown / 1 509 Kbps
    Channel(s) : 8 channels / 6 channels
    Channel positions: Front: L C R, Side: L R, Back: L R, LFE / Front: L C R, Side: L R, LFE
    Sampling rate: 48.0 KHz
    Bit depth: 24 bits
    Compression mode : Lossless / Lossy
    Title: ENG DTS-HD 7.1
    Language : English
    Default: No
    Forced : No
    
    Audio #3
    ID : 4
    Format : AC-3
    Format/Info: Audio Coding 3
    Mode extension : CM (complete main)
    Format settings, Endianness: Big
    Codec ID : A_AC3
    Duration : 1h 37mn
    Bit rate mode: Constant
    Bit rate : 640 Kbps
    Channel(s) : 6 channels
    Channel positions: Front: L C R, Side: L R, LFE
    Sampling rate: 48.0 KHz
    Bit depth: 16 bits
    Compression mode : Lossy
    Stream size: 446 MiB (3%)
    Title: ENG AC3 5.1
    Language : English
    Default: No
    Forced : No
    
    Text #1
    ID : 5
    Format : PGS
    Muxing mode: zlib
    Codec ID : S_HDMV/PGS
    Codec ID/Info: The same subtitle format used on BDs/HD-DVDs
    Title: PL SUB 3D
    Language : Polish
    Default: No
    Forced : No
    
    Text #2
    ID : 6
    Format : PGS
    Muxing mode: zlib
    Codec ID : S_HDMV/PGS
    Codec ID/Info: The same subtitle format used on BDs/HD-DVDs
    Title: ENG SUB
    Language : English
    Default: No
    Forced : No
    
    Text #3
    ID : 7
    Format : PGS
    Muxing mode: zlib
    Codec ID : S_HDMV/PGS
    Codec ID/Info: The same subtitle format used on BDs/HD-DVDs
    Title: FRE SUB
    Language : French
    Default: No
    Forced : No

    Part 1


    Nazwa pliku: Maleficent.2014.3D.MULTI.1080p.BluRay.Half-SBS.x264.DTS-HD.7.1.part1.rar
    Rozmiar pliku: 3850,00 MB
    CRC32: 05CE1BF0
    Liczba segmentów: 457
    Liczba mirrorów: 6
    Uploader: Leon Zawodowiec
    Upload dla: p2m.net.pl


    Part 2


    Nazwa pliku: Maleficent.2014.3D.MULTI.1080p.BluRay.Half-SBS.x264.DTS-HD.7.1.part2.rar
    Rozmiar pliku: 3850,00 MB
    CRC32: C3A72147
    Liczba segmentów: 454
    Liczba mirrorów: 5
    Uploader: Leon Zawodowiec
    Upload dla: p2m.net.pl


    Part 3


    Nazwa pliku: Maleficent.2014.3D.MULTI.1080p.BluRay.Half-SBS.x264.DTS-HD.7.1.part3.rar
    Rozmiar pliku: 3850,00 MB
    CRC32: 5278D6B3
    Liczba segmentów: 454
    Liczba mirrorów: 6
    Uploader: Leon Zawodowiec
    Upload dla: p2m.net.pl


    Part 4


    Nazwa pliku: Maleficent.2014.3D.MULTI.1080p.BluRay.Half-SBS.x264.DTS-HD.7.1.part4.rar
    Rozmiar pliku: 3850,00 MB
    CRC32: 0EC497B4
    Liczba segmentów: 455
    Liczba mirrorów: 6
    Uploader: Leon Zawodowiec
    Upload dla: p2m.net.pl


    Part 5


    Nazwa pliku: Maleficent.2014.3D.MULTI.1080p.BluRay.Half-SBS.x264.DTS-HD.7.1.part5.rar
    Rozmiar pliku: 545,82 MB
    CRC32: 4C83D2C2
    Liczba segmentów: 65
    Liczba mirrorów: 7
    Uploader: Leon Zawodowiec
    Upload dla: p2m.net.pl




    Part 1


    Pokaż HC


    Part 2


    Pokaż HC


    Part 3


    Pokaż HC


    Part 4


    Pokaż HC


    Part 5


    Pokaż HC


    Ostatnio edytowane przez Léon ; 5.10.2014 o 22:30




  2. Léon upija się na koszt 6 osób:

    11bioly  (25.01.2015), bedi128 (6.10.2014), jacekr74 (13.01.2016), paweles (17.12.2014), rafal23 (3.12.2014), W (5.10.2014)

Zakładki

Zakładki

Uprawnienia

  • Nie możesz zakładać nowych tematów
  • Nie możesz pisać wiadomości
  • Nie możesz dodawać załączników
  • Nie możesz edytować swoich postów
  •  
  • BB Code jest Włączony
  • EmotikonyWłączony
  • [IMG] kod jest Włączony
  • [VIDEO] code is Włączony
  • HTML jest Wyłączony
  • Trackbacki : Wyłączony
  • Pingbacki : Wyłączony
  • Refbacki : Włączony