Pokaż wyniki od 1 do 2 z 2
  1. #1
    Professional Uploader Avatar Léon
    Dołączył
    16.12.2013
    Skąd
    Paryż
    Postów
    5 411
    Postawił
    33
    Piwa otrzymane
    16 402 (4 968)

    PL & ENG X-Men: Przeszłość, która nadejdzie | 2014 [3D][MULTi][1080p][BluRay][H-SBS]


    X-Men: Przeszłość, która nadejdzie (2014)
    X-Men: Days of Future Past







    Ocena: 7,7/10
    Produkcja: USA, Wielka Brytania,
    Gatunek: Akcja, Sci-Fi,
    Światowa Premiera: 2014-05-10
    Polska Premiera: 2014-05-23
    Reżyseria: Bryan Singer
    Zdjęcia: Newton Thomas Sigel
    Scenariusz: Simon Kinberg
    Muzyka: John Ottman
    Czas trwania: 2 godz. 10 min.
    Dystrybucja: Imperial - Cinepix
    O filmie: X-Men: Przeszłość, która nadejdzie (2014) - Filmweb





    Hugh Jackman - Logan / Wolverine
    James McAvoy - Charles Xavier
    Michael Fassbender - Erik Lehnsherr
    Jennifer Lawrence - Raven / Mystique





    Spektakularny film science fiction, ukazujący dalsze losy legendarnych superbohaterów, kulisy konfliktu między nimi i walki o akceptację. X-Meni łączą swe siły, by zawalczyć o przetrwanie gatunków w dwóch epokach. Znani z poprzednich części bohaterowie łączą siły z młodszymi wersjami samych siebie, znanymi z filmu "X-Men: Pierwsza klasa" i przenoszą się w przeszłość, by ocalić swoją i naszą przyszłość.









    Kod:
    Format : Matroska
    Format version : Version 4 / Version 2
    File size: 19.6 GiB
    Duration : 2h 11mn
    Overall bit rate mode: Variable
    Overall bit rate : 21.3 Mbps
    Encoded date : UTC 2014-10-04 11:15:52
    Writing application: mkvmerge v6.7.0 ('Back to the Ground') 32bit built on Jan8 2014 15:03:17
    Writing library: libebml v1.3.0 + libmatroska v1.4.1
    
    Video
    ID : 1
    Format : AVC
    Format/Info: Advanced Video Codec
    Format profile : [email protected]
    Format settings, CABAC : Yes
    Format settings, ReFrames: 2 frames
    Codec ID : V_MPEG4/ISO/AVC
    Duration : 2h 11mn
    Nominal bit rate : 15.0 Mbps
    Width: 1 920 pixels
    Height : 1 080 pixels
    Display aspect ratio : 16:9
    Frame rate mode: Constant
    Frame rate : 23.976 fps
    Color space: YUV
    Chroma subsampling : 4:2:0
    Bit depth: 8 bits
    Scan type: Progressive
    Bits/(Pixel*Frame) : 0.302
    Title: FILM
    Writing library: x264 
    Language : English
    Default: Yes
    Forced : No
    Color primaries: BT.709
    Transfer characteristics : BT.709
    Matrix coefficients: BT.709
    
    Audio #1
    ID : 2
    Format : AC-3
    Format/Info: Audio Coding 3
    Mode extension : CM (complete main)
    Format settings, Endianness: Big
    Codec ID : A_AC3
    Duration : 2h 11mn
    Bit rate mode: Constant
    Bit rate : 384 Kbps
    Channel(s) : 6 channels
    Channel positions: Front: L C R, Side: L R, LFE
    Sampling rate: 48.0 KHz
    Bit depth: 16 bits
    Compression mode : Lossy
    Stream size: 362 MiB (2%)
    Title: PL DUB AC3 5.1
    Language : Polish
    Default: Yes
    Forced : No
    
    Audio #2
    ID : 3
    Format : DTS
    Format/Info: Digital Theater Systems
    Format profile : MA / Core
    Mode : 16
    Format settings, Endianness: Big
    Codec ID : A_DTS
    Duration : 2h 11mn
    Bit rate mode: Variable
    Bit rate : Unknown / 1 509 Kbps
    Channel(s) : 8 channels / 6 channels
    Channel positions: Front: L C R, Side: L R, Back: L R, LFE / Front: L C R, Side: L R, LFE
    Sampling rate: 48.0 KHz
    Bit depth: 24 bits
    Compression mode : Lossless / Lossy
    Title: ENG DTS-HD 7.1
    Language : English
    Default: No
    Forced : No
    
    Audio #3
    ID : 4
    Format : AC-3
    Format/Info: Audio Coding 3
    Mode extension : CM (complete main)
    Format settings, Endianness: Big
    Codec ID : A_AC3
    Duration : 2h 11mn
    Bit rate mode: Constant
    Bit rate : 640 Kbps
    Channel(s) : 6 channels
    Channel positions: Front: L C R, Side: L R, LFE
    Sampling rate: 48.0 KHz
    Bit depth: 16 bits
    Compression mode : Lossy
    Stream size: 603 MiB (3%)
    Title: ENG AC3 5.1
    Language : English
    Default: No
    Forced : No
    
    Text #1
    ID : 5
    Format : PGS
    Muxing mode: zlib
    Codec ID : S_HDMV/PGS
    Codec ID/Info: The same subtitle format used on BDs/HD-DVDs
    Title: PL SUB 3D
    Language : Polish
    Default: No
    Forced : No
    
    Text #2
    ID : 6
    Format : PGS
    Muxing mode: zlib
    Codec ID : S_HDMV/PGS
    Codec ID/Info: The same subtitle format used on BDs/HD-DVDs
    Title: ENG SUB
    Language : English
    Default: No
    Forced : No
    
    Text #3
    ID : 7
    Format : PGS
    Muxing mode: zlib
    Codec ID : S_HDMV/PGS
    Codec ID/Info: The same subtitle format used on BDs/HD-DVDs
    Title: SPA SUB
    Language : Spanish
    Default: No
    Forced : No
    
    Text #4
    ID : 8
    Format : PGS
    Muxing mode: zlib
    Codec ID : S_HDMV/PGS
    Codec ID/Info: The same subtitle format used on BDs/HD-DVDs
    Title: FRE SUB
    Language : French
    Default: No
    Forced : No

    Part 1


    Nazwa pliku: X-Men.Days.of.Future.Past.2014.3D.MULTI.1080p.BluRay.Half-SBS.x264.DTS-HD.7.1.part1.rar
    Rozmiar pliku: 3850,00 MB
    CRC32: B02F630C
    Liczba segmentów: 451
    Liczba mirrorów: 6
    Uploader: Leon Zawodowiec
    Upload dla: p2m.net.pl


    Part 2


    Nazwa pliku: X-Men.Days.of.Future.Past.2014.3D.MULTI.1080p.BluRay.Half-SBS.x264.DTS-HD.7.1.part2.rar
    Rozmiar pliku: 3850,00 MB
    CRC32: 0610BAC9
    Liczba segmentów: 454
    Liczba mirrorów: 6
    Uploader: Leon Zawodowiec
    Upload dla: p2m.net.pl


    Part 3


    Nazwa pliku: X-Men.Days.of.Future.Past.2014.3D.MULTI.1080p.BluRay.Half-SBS.x264.DTS-HD.7.1.part3.rar
    Rozmiar pliku: 3850,00 MB
    CRC32: 8A0FDD57
    Liczba segmentów: 454
    Liczba mirrorów: 6
    Uploader: Leon Zawodowiec
    Upload dla: p2m.net.pl


    Part 4


    Nazwa pliku: X-Men.Days.of.Future.Past.2014.3D.MULTI.1080p.BluRay.Half-SBS.x264.DTS-HD.7.1.part4.rar
    Rozmiar pliku: 3850,00 MB
    CRC32: 12034DC4
    Liczba segmentów: 453
    Liczba mirrorów: 7
    Uploader: Leon Zawodowiec
    Upload dla: p2m.net.pl


    Part 5


    Nazwa pliku: X-Men.Days.of.Future.Past.2014.3D.MULTI.1080p.BluRay.Half-SBS.x264.DTS-HD.7.1.part5.rar
    Rozmiar pliku: 3850,00 MB
    CRC32: 37D2EDCB
    Liczba segmentów: 455
    Liczba mirrorów: 7
    Uploader: Leon Zawodowiec
    Upload dla: p2m.net.pl


    Part 6


    Nazwa pliku: X-Men.Days.of.Future.Past.2014.3D.MULTI.1080p.BluRay.Half-SBS.x264.DTS-HD.7.1.part6.rar
    Rozmiar pliku: 2313,46 MB
    CRC32: AC50EA96
    Liczba segmentów: 272
    Liczba mirrorów: 6
    Uploader: Leon Zawodowiec
    Upload dla: p2m.net.pl




    Part 1


    Pokaż HC


    Part 2


    Pokaż HC


    Part 3


    Pokaż HC


    Part 4


    Pokaż HC


    Part 5


    Pokaż HC


    Part 6


    Pokaż HC





  2. Léon upija się na koszt 4 osób:

    BRECHA (29.11.2014), Przemek R (16.04.2016), siakistaki (7.10.2014), W (6.10.2014)

  3. #2
    Member
    Dołączył
    25.10.2014
    Wiek
    36
    Postów
    3
    Postawił
    1
    Piwa otrzymane
    4 (4)

    Domyślnie

    Pobrane i rozpakowane bez uwag. Język dubbing polski.

  4. harry.wesoly upija się na koszt:

    W (26.10.2014)

Zakładki

Zakładki

Uprawnienia

  • Nie możesz zakładać nowych tematów
  • Nie możesz pisać wiadomości
  • Nie możesz dodawać załączników
  • Nie możesz edytować swoich postów
  •  
  • BB Code jest Włączony
  • EmotikonyWłączony
  • [IMG] kod jest Włączony
  • [VIDEO] code is Włączony
  • HTML jest Wyłączony
  • Trackbacki : Wyłączony
  • Pingbacki : Wyłączony
  • Refbacki : Włączony