Pokaż wyniki od 1 do 1 z 1
  1. #1
    Professional Uploader Avatar Léon
    Dołączył
    16.12.2013
    Skąd
    Paryż
    Postów
    5 411
    Postawił
    33
    Piwa otrzymane
    16 402 (4 968)

    PL & ENG Jak wytresować smoka 2 | 2014 [MULTi][3D][H-OU][1080p][BluRay]


    Jak wytresować smoka 2 (2014)
    How to Train Your Dragon 2







    Ocena: 8,2/10
    Produkcja: USA,
    Gatunek: Animacja, Familijny, Fantasy, Przygodowy,
    Światowa Premiera: 2014-05-16
    Polska Premiera: 2014-06-20
    Reżyseria: Dean DeBlois
    Zdjęcia: b/d
    Scenariusz: Dean DeBlois
    Muzyka: John Powell
    Czas trwania: 1 godz. 45 min.
    Dystrybucja: Imperial - Cinepix
    O filmie: Jak wytresować smoka 2 (2014) - Filmweb





    Jay Baruchel - Czkawka
    Cate Blanchett - Valka
    Gerard Butler - Stoik Ważki
    Craig Ferguson - Pyskacz





    Pierwsza z dwóch kontynuacji wielkiego przeboju kina animowanego, w której poznamy dalsze przygody młodego Wikinga o imieniu Czkawka i jego udomowionego smoka Szczerbatka. W drugim rozdziale planowanej trylogii nierozłączna para musi stanąć w obronie pokoju i ocalić przyszłość ludzi i smoków przed żądnym władzy Drago.









    Kod:
    Format : Matroska
    Format version : Version 4 / Version 2
    File size: 16.1 GiB
    Duration : 1h 41mn
    Overall bit rate mode: Variable
    Overall bit rate : 22.6 Mbps
    Encoded date : UTC 2014-10-25 14:06:17
    Writing application: mkvmerge v6.7.0 ('Back to the Ground') 32bit built on Jan8 2014 15:03:17
    Writing library: libebml v1.3.0 + libmatroska v1.4.1
    
    Video
    ID : 1
    Format : AVC
    Format/Info: Advanced Video Codec
    Format profile : [email protected]
    Format settings, CABAC : Yes
    Format settings, ReFrames: 2 frames
    Codec ID : V_MPEG4/ISO/AVC
    Duration : 1h 41mn
    Nominal bit rate : 16.5 Mbps
    Width: 1 920 pixels
    Height : 1 080 pixels
    Display aspect ratio : 16:9
    Frame rate mode: Constant
    Frame rate : 23.976 fps
    Color space: YUV
    Chroma subsampling : 4:2:0
    Bit depth: 8 bits
    Scan type: Progressive
    Bits/(Pixel*Frame) : 0.332
    Title: FILM
    Writing library: x264
    Language : English
    Default: Yes
    Forced : No
    Color primaries: BT.709
    Transfer characteristics : BT.709
    Matrix coefficients: BT.709
    
    Audio #1
    ID : 2
    Format : AC-3
    Format/Info: Audio Coding 3
    Mode extension : CM (complete main)
    Format settings, Endianness: Big
    Codec ID : A_AC3
    Duration : 1h 41mn
    Bit rate mode: Constant
    Bit rate : 256 Kbps
    Channel(s) : 2 channels
    Channel positions: Front: L R
    Sampling rate: 48.0 KHz
    Bit depth: 16 bits
    Compression mode : Lossy
    Stream size: 187 MiB (1%)
    Title: PL DUB AC3 2.0
    Language : Polish
    Default: Yes
    Forced : No
    
    Audio #2
    ID : 3
    Format : DTS
    Format/Info: Digital Theater Systems
    Format profile : MA / Core
    Mode : 16
    Format settings, Endianness: Big
    Codec ID : A_DTS
    Duration : 1h 41mn
    Bit rate mode: Variable
    Bit rate : Unknown / 1 509 Kbps
    Channel(s) : 8 channels / 6 channels
    Channel positions: Front: L C R, Side: L R, Back: L R, LFE / Front: L C R, Side: L R, LFE
    Sampling rate: 48.0 KHz
    Bit depth: 24 bits
    Compression mode : Lossless / Lossy
    Title: ENG DTS-HD 7.1
    Language : English
    Default: No
    Forced : No
    
    Audio #3
    ID : 4
    Format : AC-3
    Format/Info: Audio Coding 3
    Mode extension : CM (complete main)
    Format settings, Endianness: Big
    Codec ID : A_AC3
    Duration : 1h 41mn
    Bit rate mode: Constant
    Bit rate : 640 Kbps
    Channel(s) : 6 channels
    Channel positions: Front: L C R, Side: L R, LFE
    Sampling rate: 48.0 KHz
    Bit depth: 16 bits
    Compression mode : Lossy
    Stream size: 467 MiB (3%)
    Title: ENG AC3 5.1
    Language : English
    Default: No
    Forced : No
    
    Text #1
    ID : 5
    Format : PGS
    Muxing mode: zlib
    Codec ID : S_HDMV/PGS
    Codec ID/Info: The same subtitle format used on BDs/HD-DVDs
    Title: PL SUB 3D
    Language : Polish
    Default: No
    Forced : No
    
    Text #2
    ID : 6
    Format : PGS
    Muxing mode: zlib
    Codec ID : S_HDMV/PGS
    Codec ID/Info: The same subtitle format used on BDs/HD-DVDs
    Title: ENG SUB 3D
    Language : English
    Default: No
    Forced : No
    
    Text #3
    ID : 7
    Format : UTF-8
    Codec ID : S_TEXT/UTF8
    Codec ID/Info: UTF-8 Plain Text
    Title: PL SUB 2D
    Language : Polish
    Default: No
    Forced : No
    
    Text #4
    ID : 8
    Format : PGS
    Muxing mode: zlib
    Codec ID : S_HDMV/PGS
    Codec ID/Info: The same subtitle format used on BDs/HD-DVDs
    Title: SPA SUB 3D
    Language : Spanish
    Default: No
    Forced : No
    
    Text #5
    ID : 9
    Format : PGS
    Muxing mode: zlib
    Codec ID : S_HDMV/PGS
    Codec ID/Info: The same subtitle format used on BDs/HD-DVDs
    Title: FRE SUB 3D
    Language : French
    Default: No
    Forced : No

    Part 1


    Nazwa pliku: How.to.Train.Your.Dragon.2.2014.3D.MULTI.1080p.BluRay.Half-OU.x264.DTS.HD.7.1.part1.rar
    Rozmiar pliku: 3850,00 MB
    CRC32: 6EF7BD33
    Liczba segmentów: 255
    Liczba mirrorów: 7
    Uploader: Leon Zawodowiec
    Upload dla: p2m.net.pl


    Part 2


    Nazwa pliku: How.to.Train.Your.Dragon.2.2014.3D.MULTI.1080p.BluRay.Half-OU.x264.DTS.HD.7.1.part2.rar
    Rozmiar pliku: 3850,00 MB
    CRC32: 5ED287E6
    Liczba segmentów: 258
    Liczba mirrorów: 7
    Uploader: Leon Zawodowiec
    Upload dla: p2m.net.pl


    Part 3


    Nazwa pliku: How.to.Train.Your.Dragon.2.2014.3D.MULTI.1080p.BluRay.Half-OU.x264.DTS.HD.7.1.part3.rar
    Rozmiar pliku: 3850,00 MB
    CRC32: 16304B20
    Liczba segmentów: 259
    Liczba mirrorów: 7
    Uploader: Leon Zawodowiec
    Upload dla: p2m.net.pl


    Part 4


    Nazwa pliku: How.to.Train.Your.Dragon.2.2014.3D.MULTI.1080p.BluRay.Half-OU.x264.DTS.HD.7.1.part4.rar
    Rozmiar pliku: 3850,00 MB
    CRC32: 905B42A8
    Liczba segmentów: 258
    Liczba mirrorów: 7
    Uploader: Leon Zawodowiec
    Upload dla: p2m.net.pl


    Part 5


    Nazwa pliku: How.to.Train.Your.Dragon.2.2014.3D.MULTI.1080p.BluRay.Half-OU.x264.DTS.HD.7.1.part5.rar
    Rozmiar pliku: 2307,28 MB
    CRC32: 8D457B43
    Liczba segmentów: 155
    Liczba mirrorów: 6
    Uploader: Leon Zawodowiec
    Upload dla: p2m.net.pl




    Part 1


    Pokaż HC


    Part 2


    Pokaż HC


    Part 3


    Pokaż HC


    Part 4


    Pokaż HC


    Part 5


    Pokaż HC





  2. Léon upija się na koszt 3 osób:

    11bioly  (25.01.2015), rafal23 (30.11.2014), W (27.10.2014)

Zakładki

Zakładki

Uprawnienia

  • Nie możesz zakładać nowych tematów
  • Nie możesz pisać wiadomości
  • Nie możesz dodawać załączników
  • Nie możesz edytować swoich postów
  •  
  • BB Code jest Włączony
  • EmotikonyWłączony
  • [IMG] kod jest Włączony
  • [VIDEO] code is Włączony
  • HTML jest Wyłączony
  • Trackbacki : Wyłączony
  • Pingbacki : Wyłączony
  • Refbacki : Włączony