Pokaż wyniki od 1 do 1 z 1
  1. #1
    Professional Uploader Avatar Léon
    Dołączył
    16.12.2013
    Skąd
    Paryż
    Postów
    5 411
    Postawił
    33
    Piwa otrzymane
    16 402 (4 968)

    PL & ENG Królowa Śniegu | 2012 [MULTi][3D][H-OU][1080p][BluRay]


    Królowa Śniegu (2012)
    Snezhnaya koroleva







    Ocena: 6,0/10
    Produkcja: Rosja,
    Gatunek: Animacja, Familijny,
    Światowa Premiera: 2012-12-31
    Polska Premiera: 2013-12-26
    Reżyseria: Vladlen BarbeMaksim Sveshnikov
    Zdjęcia: b/d
    Scenariusz: Vadim SveshnikovVladlen Barbe
    Muzyka: Mark Willott
    Czas trwania: 1 godz. 20 min.
    Dystrybucja: Kino Świat
    O filmie: Królowa Śniegu (2012) - Filmweb





    Anna Shurochkina - Gerda
    Ivan Okhlobystin - Orm
    Galina Tyunina - Królowa Śniegu
    Dmitriy Nagiev - Wychowawca





    Zła Królowa Śniegu zamierza zmrozić serca wszystkich ludzi i pozbawić ich emocji. Jeżeli ten niecny plan się powiedzie, artyści i sztuka na całym świecie znikną, a ludzie zapomną, czym są miłość, przyjaźń i dobro. Jednak magiczne lustro Królowej podpowiada, że Gerda i Kai, dzieci słynnego mistrza wyrobów ze szkła, mają moc, by pokrzyżować jej podłe plany. Sługom Królowej udaje się zwabić chłopca i porwać go do lodowej krainy. Mała i odważna Gerda, wraz z przyjaciółmi, wyrusza w magiczną podróż prosto do pięknego i niebezpiecznego świata zimy i mrozu, aby uratować brata i powstrzymać okrutną Królową.









    Kod:
    Format : Matroska
    Format version : Version 4 / Version 2
    File size: 5.62 GiB
    Duration : 1h 16mn
    Overall bit rate : 10.6 Mbps
    Encoded date : UTC 2014-10-25 10:54:09
    Writing application: mkvmerge v6.7.0 ('Back to the Ground') 32bit built on Jan8 2014 15:03:17
    Writing library: libebml v1.3.0 + libmatroska v1.4.1
    
    Video
    ID : 1
    Format : AVC
    Format/Info: Advanced Video Codec
    Format profile : [email protected]
    Format settings, CABAC : Yes
    Format settings, ReFrames: 4 frames
    Codec ID : V_MPEG4/ISO/AVC
    Duration : 1h 16mn
    Bit rate : 8 400 Kbps
    Width: 1 920 pixels
    Height : 1 080 pixels
    Display aspect ratio : 16:9
    Frame rate mode: Constant
    Frame rate : 23.976 fps
    Color space: YUV
    Chroma subsampling : 4:2:0
    Bit depth: 8 bits
    Scan type: Progressive
    Bits/(Pixel*Frame) : 0.169
    Stream size: 4.46 GiB (79%)
    Title: FILM
    Writing library: x264 
    Language : English
    Default: Yes
    Forced : No
    
    Audio #1
    ID : 2
    Format : AC-3
    Format/Info: Audio Coding 3
    Mode extension : CM (complete main)
    Format settings, Endianness: Big
    Codec ID : A_AC3
    Duration : 1h 16mn
    Bit rate mode: Constant
    Bit rate : 448 Kbps
    Channel(s) : 6 channels
    Channel positions: Front: L C R, Side: L R, LFE
    Sampling rate: 48.0 KHz
    Bit depth: 16 bits
    Compression mode : Lossy
    Stream size: 244 MiB (4%)
    Title: PL AC3 5.1
    Language : Polish
    Default: Yes
    Forced : No
    
    Audio #2
    ID : 3
    Format : DTS
    Format/Info: Digital Theater Systems
    Mode : 16
    Format settings, Endianness: Big
    Codec ID : A_DTS
    Duration : 1h 16mn
    Bit rate mode: Constant
    Bit rate : 1 509 Kbps
    Channel(s) : 6 channels
    Channel positions: Front: L C R, Side: L R, LFE
    Sampling rate: 48.0 KHz
    Bit depth: 24 bits
    Compression mode : Lossy
    Delay relative to video: 14s 70ms
    Stream size: 821 MiB (14%)
    Title: ENG DTS 5.1
    Language : English
    Default: No
    Forced : No

    Part 1


    Nazwa pliku: Snow.Queen.3D..2012.MULTI.1080p.BluRay.H-OU.x264.DTS.part1.rar
    Rozmiar pliku: 3850,00 MB
    CRC32: B16D39EF
    Liczba segmentów: 258
    Liczba mirrorów: 7
    Uploader: Leon
    Upload dla: p2m.net.pl


    Part 2


    Nazwa pliku: Snow.Queen.3D..2012.MULTI.1080p.BluRay.H-OU.x264.DTS.part2.rar
    Rozmiar pliku: 2350,78 MB
    CRC32: 61275EF4
    Liczba segmentów: 159
    Liczba mirrorów: 7
    Uploader: Leon
    Upload dla: p2m.net.pl




    Part 1


    Pokaż HC


    Part 2


    Pokaż HC


    Ostatnio edytowane przez Léon ; 28.10.2014 o 00:05




  2. Léon upija się na koszt 6 osób:

    11bioly  (25.01.2015), cezar116  (16.11.2014), Gandalf (4.11.2015), macko33 (15.12.2014), rafal23 (3.12.2014), W (28.10.2014)

Zakładki

Zakładki

Uprawnienia

  • Nie możesz zakładać nowych tematów
  • Nie możesz pisać wiadomości
  • Nie możesz dodawać załączników
  • Nie możesz edytować swoich postów
  •  
  • BB Code jest Włączony
  • EmotikonyWłączony
  • [IMG] kod jest Włączony
  • [VIDEO] code is Włączony
  • HTML jest Wyłączony
  • Trackbacki : Wyłączony
  • Pingbacki : Wyłączony
  • Refbacki : Włączony