Pokaż wyniki od 1 do 1 z 1
  1. #1
    Professional Uploader Avatar Léon
    Dołączył
    16.12.2013
    Skąd
    Paryż
    Postów
    5 411
    Postawił
    33
    Piwa otrzymane
    16 407 (4 968)

    PL & ENG Transformers: Wiek zagłady | 2014 [MULTi][3D][H-OU][1080p][BluRay]


    Transformers: Wiek zagłady (2014)
    Transformers: Age of Extinction







    Ocena: 6,3/10
    Produkcja: Chiny, USA,
    Gatunek: Akcja, Sci-Fi,
    Światowa Premiera: 2014-06-19
    Polska Premiera: 2014-06-27
    Reżyseria: Michael Bay
    Zdjęcia: Amir M. Mokri
    Scenariusz: Ehren Kruger
    Muzyka: Steve Jablonsky
    Czas trwania: 2 godz. 45 min.
    Dystrybucja: United International Pictures Sp z o.o.
    O filmie: Transformers: Wiek zagłady (2014) - Filmweb





    Mark Wahlberg - Cade Yeager
    Stanley Tucci - Joshua Joyce
    Kelsey Grammer - Harold Attinger
    Nicola Peltz - Tessa Yeager





    Ludzkość próbuje dojść do siebie po wydarzeniach, które miały miejsce w ostatnim czasie. Zarówno Autoboty jak i Decepticony praktycznie zniknęły z naszej planety. Mimo to nie wszyscy zapomnieli o ich istnieniu. Grupa naukowców i biznesmenów stara się, jak najwięcej dowiedzieć o technologii Transformersów, co często popycha ich do przekraczania granic, których nigdy nie powinni naruszać. Tymczasem na Ziemię powracają Decepticony i ponownie rozpoczyna się walka dobra ze złem.









    Kod:
    Format : Matroska
    Format version : Version 4 / Version 2
    File size: 25.0 GiB
    Duration : 2h 45mn
    Overall bit rate mode: Variable
    Overall bit rate : 21.7 Mbps
    Encoded date : UTC 2014-10-28 15:49:58
    Writing application: mkvmerge v6.7.0 ('Back to the Ground') 32bit built on Jan8 2014 15:03:17
    Writing library: libebml v1.3.0 + libmatroska v1.4.1
    
    Video
    ID : 1
    Format : AVC
    Format/Info: Advanced Video Codec
    Format profile : [email protected]
    Format settings, CABAC : Yes
    Format settings, ReFrames: 2 frames
    Codec ID : V_MPEG4/ISO/AVC
    Duration : 2h 45mn
    Nominal bit rate : 17.0 Mbps
    Width: 1 920 pixels
    Height : 1 080 pixels
    Display aspect ratio : 16:9
    Frame rate mode: Constant
    Frame rate : 23.976 fps
    Color space: YUV
    Chroma subsampling : 4:2:0
    Bit depth: 8 bits
    Scan type: Progressive
    Bits/(Pixel*Frame) : 0.342
    Title: FILM 3D H-OU
    Writing library: x264 
    Language : English
    Default: Yes
    Forced : No
    Color primaries: BT.709
    Transfer characteristics : BT.709
    Matrix coefficients: BT.709
    
    Audio #1
    ID : 2
    Format : AC-3
    Format/Info: Audio Coding 3
    Mode extension : CM (complete main)
    Format settings, Endianness: Big
    Codec ID : A_AC3
    Duration : 2h 45mn
    Bit rate mode: Constant
    Bit rate : 384 Kbps
    Channel(s) : 6 channels
    Channel positions: Front: L C R, Side: L R, LFE
    Sampling rate: 48.0 KHz
    Bit depth: 16 bits
    Compression mode : Lossy
    Stream size: 454 MiB (2%)
    Title: PL DUB AC3 5.1
    Language : Polish
    Default: Yes
    Forced : No
    
    Audio #2
    ID : 3
    Format : DTS
    Format/Info: Digital Theater Systems
    Format profile : MA / Core
    Mode : 16
    Format settings, Endianness: Big
    Codec ID : A_DTS
    Duration : 2h 45mn
    Bit rate mode: Variable
    Bit rate : Unknown / 1 509 Kbps
    Channel(s) : 8 channels / 6 channels
    Channel positions: Front: L C R, Side: L R, Back: L R, LFE / Front: L C R, Side: L R, LFE
    Sampling rate: 48.0 KHz
    Bit depth: 24 bits
    Compression mode : Lossless / Lossy
    Title: ENG DTS-HD 7.1
    Language : English
    Default: No
    Forced : No
    
    Audio #3
    ID : 4
    Format : AC-3
    Format/Info: Audio Coding 3
    Mode extension : CM (complete main)
    Format settings, Endianness: Big
    Codec ID : A_AC3
    Duration : 2h 45mn
    Bit rate mode: Constant
    Bit rate : 640 Kbps
    Channel(s) : 6 channels
    Channel positions: Front: L C R, Side: L R, LFE
    Sampling rate: 48.0 KHz
    Bit depth: 16 bits
    Compression mode : Lossy
    Stream size: 756 MiB (3%)
    Title: ENG AC3 5.1
    Language : English
    Default: No
    Forced : No
    
    Text #1
    ID : 5
    Format : PGS
    Muxing mode: zlib
    Codec ID : S_HDMV/PGS
    Codec ID/Info: The same subtitle format used on BDs/HD-DVDs
    Title: PL SUB 3D
    Language : Polish
    Default: No
    Forced : No
    
    Text #2
    ID : 6
    Format : UTF-8
    Codec ID : S_TEXT/UTF8
    Codec ID/Info: UTF-8 Plain Text
    Title: PL SUB 2D
    Language : Polish
    Default: No
    Forced : No
    
    Text #3
    ID : 7
    Format : UTF-8
    Codec ID : S_TEXT/UTF8
    Codec ID/Info: UTF-8 Plain Text
    Title: PL SUB 2DFORCED
    Language : Polish
    Default: No
    Forced : No
    
    Text #4
    ID : 8
    Format : PGS
    Muxing mode: zlib
    Codec ID : S_HDMV/PGS
    Codec ID/Info: The same subtitle format used on BDs/HD-DVDs
    Title: ENG SUB FORCED
    Language : English
    Default: No
    Forced : No
    
    Text #5
    ID : 9
    Format : PGS
    Muxing mode: zlib
    Codec ID : S_HDMV/PGS
    Codec ID/Info: The same subtitle format used on BDs/HD-DVDs
    Title: ENG SUB
    Language : English
    Default: No
    Forced : No
    
    Text #6
    ID : 10
    Format : PGS
    Muxing mode: zlib
    Codec ID : S_HDMV/PGS
    Codec ID/Info: The same subtitle format used on BDs/HD-DVDs
    Title: FRE SUB
    Language : French
    Default: No
    Forced : No
    
    Text #7
    ID : 11
    Format : PGS
    Muxing mode: zlib
    Codec ID : S_HDMV/PGS
    Codec ID/Info: The same subtitle format used on BDs/HD-DVDs
    Title: SPA SUB
    Language : Spanish
    Default: No
    Forced : No

    Part 1


    Nazwa pliku: Transformers.Age.of.Extinction.2014.3D.MULTI.1080p.BluRay.Half-OU.x264.DTS-HD.MA.7.1.part1.rar
    Rozmiar pliku: 3850,00 MB
    CRC32: 598A5839
    Liczba segmentów: 258
    Liczba mirrorów: 7
    Uploader: Leon Zawodowiec
    Upload dla: p2m.net.pl


    Part 2


    Nazwa pliku: Transformers.Age.of.Extinction.2014.3D.MULTI.1080p.BluRay.Half-OU.x264.DTS-HD.MA.7.1.part2.rar
    Rozmiar pliku: 3850,00 MB
    CRC32: FA50DD6C
    Liczba segmentów: 260
    Liczba mirrorów: 7
    Uploader: Leon Zawodowiec
    Upload dla: p2m.net.pl


    Part 3


    Nazwa pliku: Transformers.Age.of.Extinction.2014.3D.MULTI.1080p.BluRay.Half-OU.x264.DTS-HD.MA.7.1.part3.rar
    Rozmiar pliku: 3850,00 MB
    CRC32: 9895EF79
    Liczba segmentów: 262
    Liczba mirrorów: 7
    Uploader: Leon Zawodowiec
    Upload dla: p2m.net.pl


    Part 4


    Nazwa pliku: Transformers.Age.of.Extinction.2014.3D.MULTI.1080p.BluRay.Half-OU.x264.DTS-HD.MA.7.1.part4.rar
    Rozmiar pliku: 3850,00 MB
    CRC32: 6F1E6EC9
    Liczba segmentów: 255
    Liczba mirrorów: 7
    Uploader: Leon Zawodowiec
    Upload dla: p2m.net.pl


    Part 5


    Nazwa pliku: Transformers.Age.of.Extinction.2014.3D.MULTI.1080p.BluRay.Half-OU.x264.DTS-HD.MA.7.1.part5.rar
    Rozmiar pliku: 3850,00 MB
    CRC32: D0A2249B
    Liczba segmentów: 261
    Liczba mirrorów: 8
    Uploader: Leon Zawodowiec
    Upload dla: p2m.net.pl


    Part 6


    Nazwa pliku: Transformers.Age.of.Extinction.2014.3D.MULTI.1080p.BluRay.Half-OU.x264.DTS-HD.MA.7.1.part6.rar
    Rozmiar pliku: 3850,00 MB
    CRC32: 5D2F2F98
    Liczba segmentów: 262
    Liczba mirrorów: 8
    Uploader: Leon Zawodowiec
    Upload dla: p2m.net.pl


    Part 7


    Nazwa pliku: Transformers.Age.of.Extinction.2014.3D.MULTI.1080p.BluRay.Half-OU.x264.DTS-HD.MA.7.1.part7.rar
    Rozmiar pliku: 3850,00 MB
    CRC32: B1810088
    Liczba segmentów: 253
    Liczba mirrorów: 8
    Uploader: Leon Zawodowiec
    Upload dla: p2m.net.pl


    Part 8


    Nazwa pliku: Transformers.Age.of.Extinction.2014.3D.MULTI.1080p.BluRay.Half-OU.x264.DTS-HD.MA.7.1.part8.rar
    Rozmiar pliku: 481,80 MB
    CRC32: DBF3EA6F
    Liczba segmentów: 33
    Liczba mirrorów: 6
    Uploader: Leon Zawodowiec
    Upload dla: p2m.net.pl




    Part 1


    Pokaż HC


    Part 2


    Pokaż HC


    Part 3


    Pokaż HC


    Part 4


    Pokaż HC


    Part 5


    Pokaż HC


    Part 6


    Pokaż HC


    Part 7


    Pokaż HC


    Part 8


    Pokaż HC





  2. Léon upija się na koszt 4 osób:

    astra1 (10.01.2015), gitarrra (5.11.2014), Rubicon (21.11.2014), W (30.10.2014)

Zakładki

Zakładki

Uprawnienia

  • Nie możesz zakładać nowych tematów
  • Nie możesz pisać wiadomości
  • Nie możesz dodawać załączników
  • Nie możesz edytować swoich postów
  •  
  • BB Code jest Włączony
  • EmotikonyWłączony
  • [IMG] kod jest Włączony
  • [VIDEO] code is Włączony
  • HTML jest Wyłączony
  • Trackbacki : Wyłączony
  • Pingbacki : Wyłączony
  • Refbacki : Włączony