Pokaż wyniki od 1 do 6 z 6
  1. #1
    Ultimate Uploader Avatar Niebiański Pies
    Dołączył
    4.01.2015
    Skąd
    Gdańsk
    Postów
    259
    Postawił
    2
    Piwa otrzymane
    933 (241)

    PL & ENG Hobbit: Bitwa Pięciu Armii (2014) [MULTI 1080p BluRay]


    Hobbit: Bitwa Pięciu Armii (2014)
    The Hobbit: The Battle of the Five Armies







    Ocena: 7,2
    Produkcja: Nowa Zelandia, USA,
    Gatunek: Fantasy Przygodowy
    Światowa Premiera: 2014-12-01
    Polska Premiera: 2014-12-25
    Reżyseria: Peter Jackson
    Zdjęcia: Andrew Lesnie
    Scenariusz: Fran Walsh Philippa Boyens Guillermo del Toro Peter Jackson
    Muzyka: Howard Shore
    Dystrybucja: Forum Film Poland Sp. z o.o.
    O filmie: Hobbit: Bitwa Pięciu Armii (2014) - Filmweb





    Martin Freeman - Bilbo Baggins
    Ian McKellen - Gandalf Szary
    Richard Armitage - Thorin Dębowa Tarcza
    Luke Evans - Bard
    Orlando Bloom - Legolas
    Evangeline Lilly - Tauriel
    Lee Pace - Król Thranduil





    Filmowa adaptacja książki J.R.R. Tolkiena, będącej wstępem do słynnego "Władcy Pierścieni", to opowieść pełna niesamowitych wydarzeń i magicznych postaci. Przedstawia odwieczną walkę dobra ze złem. Po wielkim sukcesie pierwszych dwóch części trylogii – "Hobbit: Niezwykła podróż" oraz "Hobbit: Pustkowie Smauga", nadszedł czas na film zamykający niezwykłe dzieło Petera Jacksona: "Hobbit: Bitwa Pięciu Armii". Drużyna dowodzona przez Thorina Dębową Tarczę dotarła do Samotnej[span class="fullText hide"]Góry, której skarbu strzeże potężny Smaug. Czy Bilbo i jego towarzysze pokonają smoka i odzyskają legendarny Erebor?









    Kod:
    General
    Format: Matroska
    Format version: Version 4 / Version 2
    File size : 21.0 GiB
    Duration: 2h 24mn
    Overall bit rate mode : Variable
    Overall bit rate: 20.8 Mbps
    Movie name: WiZARDS
    Encoded date: UTC 2015-03-08 15:58:10
    Writing application : mkvmerge v6.7.0 ('Back to the Ground') 32bit built on Jan8 2014 15:03:17
    Writing library : libebml v1.3.0 + libmatroska v1.4.1
    
    Video
    ID: 1
    Format: AVC
    Format/Info : Advanced Video Codec
    Format profile: [email protected]
    MultiView_Count : 2
    MultiView_Layout: Top-Bottom (left eye first)
    Format settings, CABAC: Yes
    Format settings, ReFrames : 4 frames
    Codec ID: V_MPEG4/ISO/AVC
    Duration: 2h 24mn
    Nominal bit rate: 15.0 Mbps
    Width : 1 920 pixels
    Height: 1 080 pixels
    Display aspect ratio: 16:9
    Frame rate mode : Constant
    Frame rate: 23.976 fps
    Color space : YUV
    Chroma subsampling: 4:2:0
    Bit depth : 8 bits
    Scan type : Progressive
    Bits/(Pixel*Frame): 0.302
    Title : FILM
    Writing library : x264 core 142 r2453 ea0ca51
    Language: English
    Default : Yes
    Forced: No
    
    Audio #1
    ID: 2
    Format: AC-3
    Format/Info : Audio Coding 3
    Mode extension: CM (complete main)
    Format settings, Endianness : Big
    Codec ID: A_AC3
    Duration: 2h 24mn
    Bit rate mode : Constant
    Bit rate: 448 Kbps
    Channel(s): 6 channels
    Channel positions : Front: L C R, Side: L R, LFE
    Sampling rate : 48.0 KHz
    Bit depth : 16 bits
    Compression mode: Lossy
    Stream size : 463 MiB (2%)
    Title : PL DUB AC3 5.1
    Language: Polish
    Default : Yes
    Forced: No
    
    Audio #2
    ID: 3
    Format: DTS
    Format/Info : Digital Theater Systems
    Format profile: MA / Core
    Mode: 16
    Format settings, Endianness : Big
    Codec ID: A_DTS
    Duration: 2h 24mn
    Bit rate mode : Variable
    Bit rate: Unknown / 1 509 Kbps
    Channel(s): 8 channels / 6 channels
    Channel positions : Front: L C R, Side: L R, Back: L R, LFE / Front: L C R, Side: L R, LFE
    Sampling rate : 48.0 KHz
    Bit depth : 24 bits
    Compression mode: Lossless / Lossy
    Title : English (DTS-HD 7.1)
    Language: English
    Default : No
    Forced: No
    
    Audio #3
    ID: 4
    Format: AC-3
    Format/Info : Audio Coding 3
    Mode extension: CM (complete main)
    Format settings, Endianness : Big
    Codec ID: A_AC3
    Duration: 2h 24mn
    Bit rate mode : Constant
    Bit rate: 640 Kbps
    Channel(s): 6 channels
    Channel positions : Front: L C R, Side: L R, LFE
    Sampling rate : 48.0 KHz
    Bit depth : 16 bits
    Compression mode: Lossy
    Stream size : 662 MiB (3%)
    Title : ENG AC3 5.1
    Language: English
    Default : No
    Forced: No
    
    Text #1
    ID: 5
    Format: PGS
    Muxing mode : zlib
    Codec ID: S_HDMV/PGS
    Codec ID/Info : The same subtitle format used on BDs/HD-DVDs
    Title : PL SUB 3D
    Language: Polish
    Default : No
    Forced: No
    
    Text #2
    ID: 6
    Format: UTF-8
    Codec ID: S_TEXT/UTF8
    Codec ID/Info : UTF-8 Plain Text
    Title : PL SUB 2D
    Language: Polish
    Default : No
    Forced: No
    
    Text #3
    ID: 7
    Format: UTF-8
    Codec ID: S_TEXT/UTF8
    Codec ID/Info : UTF-8 Plain Text
    Title : ENG SUB 2D
    Language: English
    Default : No
    Forced: No

    Part 1


    Nazwa pliku: The.Hobbit.The.Battle.of.Five.Armies.3D.2014.MULTI.1080p.BluRay.H-OU.x264.DTS-MA.7.1.part1.rar
    Rozmiar pliku: 6144,00 MB
    CRC32: 401430D3
    Liczba segmentów: 765
    Liczba mirrorów: 8
    Uploader: Niebianski Pies
    Upload dla: p2m.net.pl


    Part 2


    Nazwa pliku: The.Hobbit.The.Battle.of.Five.Armies.3D.2014.MULTI.1080p.BluRay.H-OU.x264.DTS-MA.7.1.part2.rar
    Rozmiar pliku: 6144,00 MB
    CRC32: B88FA9B0
    Liczba segmentów: 765
    Liczba mirrorów: 8
    Uploader: Niebianski Pies
    Upload dla: p2m.net.pl


    Part 3


    Nazwa pliku: The.Hobbit.The.Battle.of.Five.Armies.3D.2014.MULTI.1080p.BluRay.H-OU.x264.DTS-MA.7.1.part3.rar
    Rozmiar pliku: 6144,00 MB
    CRC32: 0800322F
    Liczba segmentów: 764
    Liczba mirrorów: 8
    Uploader: Niebianski Pies
    Upload dla: p2m.net.pl


    Part 4


    Nazwa pliku: The.Hobbit.The.Battle.of.Five.Armies.3D.2014.MULTI.1080p.BluRay.H-OU.x264.DTS-MA.7.1.part4.rar
    Rozmiar pliku: 4097,43 MB
    CRC32: E7478453
    Liczba segmentów: 513
    Liczba mirrorów: 8
    Uploader: Niebianski Pies
    Upload dla: p2m.net.pl




    Part 1


    Pokaż HC


    Part 2


    Pokaż HC


    Part 3


    Pokaż HC


    Part 4


    Pokaż HC



  2. Niebiański Pies upija się na koszt 9 osób:

    Anonimowy Brzdąc  (13.03.2015), cosm095 (19.07.2016), herbertbmw (24.07.2016), norobr (14.03.2015), paweles (13.03.2015), rafal23 (15.03.2015), staszek_s (18.12.2015), Turmir1 (11.03.2015), W (11.03.2015)

  3. #2
    Member
    Dołączył
    20.08.2007
    Postów
    76
    Postawił
    149
    Piwa otrzymane
    48 (36)

    Domyślnie

    Drugi part uszkodzony , podczas wypakowywanie się wysypuje, bardzo proszę o poprawienie.

  4. norobr upija się na koszt:

    W (17.03.2015)

  5. #3
    Teh wizard
    Avatar Gandalf
    Dołączył
    25.10.2007
    Skąd
    wiocha4ever :)
    Postów
    320
    Postawił
    132
    Piwa otrzymane
    471 (242)

    Domyślnie

    Próbowałeś go pobrać jeszcze raz albo użyć danych naprawczych?


  6. Gandalf upija się na koszt:

    W (17.03.2015)

  7. #4
    Member
    Dołączył
    20.08.2007
    Postów
    76
    Postawił
    149
    Piwa otrzymane
    48 (36)

    Domyślnie

    Cytat Napisał Gandalf Zobacz post
    Próbowałeś go pobrać jeszcze raz albo użyć danych naprawczych?
    Pobierałem 3 razy i to samo , spróbuję z danymi naprawczymi .

  8. norobr upija się na koszt:

    W (17.03.2015)

  9. #5
    Ultimate Uploader Avatar Niebiański Pies
    Dołączył
    4.01.2015
    Skąd
    Gdańsk
    Postów
    259
    Postawił
    2
    Piwa otrzymane
    933 (241)

    Domyślnie

    Cytat Napisał norobr Zobacz post
    Pobierałem 3 razy i to samo , spróbuję z danymi naprawczymi .
    Czy problem występuje u innych użytkowników?

  10. Niebiański Pies upija się na koszt:

    W (17.03.2015)

  11. #6
    Donator
    Dołączył
    3.08.2008
    Postów
    5
    Postawił
    14
    Piwa otrzymane
    5 (3)

    Domyślnie

    Całość rozpakowała się i zacząłem oglądać lecz po 7 min film zatrzymał się i nic nie można zrobić klawiszami pilota.
    Na kompie wszystko działa.
    Ostatnio edytowane przez Turmir1 ; 29.04.2015 o 20:58

  12. Turmir1 upija się na koszt:

    W (30.04.2015)

Zakładki

Zakładki

Uprawnienia

  • Nie możesz zakładać nowych tematów
  • Nie możesz pisać wiadomości
  • Nie możesz dodawać załączników
  • Nie możesz edytować swoich postów
  •  
  • BB Code jest Włączony
  • EmotikonyWłączony
  • [IMG] kod jest Włączony
  • [VIDEO] code is Włączony
  • HTML jest Wyłączony
  • Trackbacki : Wyłączony
  • Pingbacki : Wyłączony
  • Refbacki : Włączony