Pokaż wyniki od 1 do 1 z 1
  1. #1
    Ultimate Uploader Avatar Niebiański Pies
    Dołączył
    4.01.2015
    Skąd
    Gdańsk
    Postów
    259
    Postawił
    2
    Piwa otrzymane
    933 (241)

    PL & ENG Pingwiny z Madagaskaru (2014) [MULTI 1080p BluRay]


    Pingwiny z Madagaskaru (2014)
    Penguins of Madagascar







    Ocena: 6,8
    Produkcja: USA,
    Gatunek: Animacja Familijny Komedia Przygodowy
    Światowa Premiera: 2014-11-08
    Polska Premiera: 2015-01-30
    Reżyseria: Simon J. Smith Eric Darnell
    Zdjęcia: b/d
    Scenariusz: John Aboud Michael Colton Brandon Sawyer
    Muzyka: Lorne Balfe
    Dystrybucja: Imperial - Cinepix
    O filmie: Pingwiny z Madagaskaru (2014) - Filmweb







    Antarktyda. Skipper, Kowalski i Rico są pingwinami. Niespodziewanie im oczom ukazuje się jajko, z którego wykluwa się nowy, mały ptak-nielot, Szeregowy. Mija 10 lat, a światu zagraża niejaki dr Oktawiusz Mackiewicz przybierający postać ośmiornicy Dave'a. Nieloty wraz z pomocą zespołu Północny Wiatr łączą siły i postanawiają powstrzymać złowrogiego doktora. Jeśli ich misja się nie powiedzie, świat będzie należał do głowonoga.









    Kod:
    General
    Format: Matroska
    Format version: Version 4 / Version 2
    File size : 7.44 GiB
    Duration: 1h 31mn
    Overall bit rate: 11.6 Mbps
    Movie name: WiZARDS
    Encoded date: UTC 2015-03-21 22:27:24
    Writing application : mkvmerge v6.7.0 ('Back to the Ground') 32bit built on Jan8 2014 15:03:17
    Writing library : libebml v1.3.0 + libmatroska v1.4.1
    
    Video
    ID: 1
    Format: AVC
    Format/Info : Advanced Video Codec
    Format profile: [email protected]
    Format settings, CABAC: Yes
    Format settings, ReFrames : 4 frames
    Codec ID: V_MPEG4/ISO/AVC
    Duration: 1h 31mn
    Bit rate: 8 955 Kbps
    Width : 1 920 pixels
    Height: 1 080 pixels
    Display aspect ratio: 16:9
    Frame rate mode : Constant
    Frame rate: 23.976 fps
    Color space : YUV
    Chroma subsampling: 4:2:0
    Bit depth : 8 bits
    Scan type : Progressive
    Bits/(Pixel*Frame): 0.180
    Stream size : 5.74 GiB (77%)
    Title : FILM
    Writing library : x264 core 138 r2358 9e941d1
    Language: English
    Default : Yes
    Forced: No
    
    Audio #1
    ID: 2
    Format: AC-3
    Format/Info : Audio Coding 3
    Mode extension: CM (complete main)
    Format settings, Endianness : Big
    Codec ID: A_AC3
    Duration: 1h 31mn
    Bit rate mode : Constant
    Bit rate: 256 Kbps
    Channel(s): 2 channels
    Channel positions : Front: L R
    Sampling rate : 48.0 KHz
    Bit depth : 16 bits
    Compression mode: Lossy
    Stream size : 168 MiB (2%)
    Title : PL DUB AC3 2.0
    Language: Polish
    Default : Yes
    Forced: No
    
    Audio #2
    ID: 3
    Format: DTS
    Format/Info : Digital Theater Systems
    Format profile: ES
    Mode: 16
    Format settings, Endianness : Big
    Codec ID: A_DTS
    Duration: 1h 31mn
    Bit rate mode : Constant
    Bit rate: 1 509 Kbps
    Channel(s): 6 channels
    Channel positions : Front: L C R, Side: L R, LFE
    Sampling rate : 48.0 KHz
    Bit depth : 24 bits
    Compression mode: Lossy
    Stream size : 991 MiB (13%)
    Title : ENG DTS 5.1
    Language: English
    Default : No
    Forced: No
    
    Audio #3
    ID: 4
    Format: AC-3
    Format/Info : Audio Coding 3
    Mode extension: CM (complete main)
    Format settings, Endianness : Big
    Codec ID: A_AC3
    Duration: 1h 31mn
    Bit rate mode : Constant
    Bit rate: 640 Kbps
    Channel(s): 6 channels
    Channel positions : Front: L C R, Side: L R, LFE
    Sampling rate : 48.0 KHz
    Bit depth : 16 bits
    Compression mode: Lossy
    Stream size : 420 MiB (6%)
    Title : ENG AC3 5.1
    Language: English
    Default : No
    Forced: No
    
    Text #1
    ID: 5
    Format: PGS
    Muxing mode : zlib
    Codec ID: S_HDMV/PGS
    Codec ID/Info : The same subtitle format used on BDs/HD-DVDs
    Title : PL SUB 3D
    Language: Polish
    Default : No
    Forced: No
    
    Text #2
    ID: 6
    Format: UTF-8
    Codec ID: S_TEXT/UTF8
    Codec ID/Info : UTF-8 Plain Text
    Title : PL SUB
    Language: Polish
    Default : No
    Forced: No
    
    Text #3
    ID: 7
    Format: UTF-8
    Codec ID: S_TEXT/UTF8
    Codec ID/Info : UTF-8 Plain Text
    Title : ENG SUB
    Language: English
    Default : No
    Forced: No

    Part 1


    Nazwa pliku: Penguins.Of.Madagascar.3D.2014.MULTI.1080p.BluRay.HOU.x264.DTS.part1.rar
    Rozmiar pliku: 5120,00 MB
    CRC32: 5F8E8F84
    Liczba segmentów: 638
    Liczba mirrorów: 9
    Uploader: Niebianski Pies
    Upload dla: p2m.net.pl


    Part 2


    Nazwa pliku: Penguins.Of.Madagascar.3D.2014.MULTI.1080p.BluRay.HOU.x264.DTS.part2.rar
    Rozmiar pliku: 3003,60 MB
    CRC32: FE362DB6
    Liczba segmentów: 376
    Liczba mirrorów: 9
    Uploader: Niebianski Pies
    Upload dla: p2m.net.pl




    Part 1


    Pokaż HC

     

    Part 2


    Pokaż HC

     



    Ostatnio edytowane przez Gandalf ; 24.03.2015 o 20:25

  2. Niebiański Pies upija się na koszt 5 osób:

    JohnMark (12.04.2015), rafal23 (30.03.2015), Samrat (26.04.2015), siakistaki (24.03.2015), W (24.03.2015)

Zakładki

Zakładki

Uprawnienia

  • Nie możesz zakładać nowych tematów
  • Nie możesz pisać wiadomości
  • Nie możesz dodawać załączników
  • Nie możesz edytować swoich postów
  •  
  • BB Code jest Włączony
  • EmotikonyWłączony
  • [IMG] kod jest Włączony
  • [VIDEO] code is Włączony
  • HTML jest Wyłączony
  • Trackbacki : Wyłączony
  • Pingbacki : Wyłączony
  • Refbacki : Włączony