Pokaż wyniki od 1 do 1 z 1
  1. #1
    Member Avatar Kot Behemot
    Dołączył
    20.07.2007
    Postów
    1 179
    Postawił
    0
    Piwa otrzymane
    2 792 (998)

    ENG Insurgent | 2015 | 1080p | Half-SBS 3D | BluRay | x264


    Zbuntowana (2015)
    Insurgent







    Ocena: 6,8
    Produkcja: USA,
    Gatunek: Akcja, Romans, Sci-Fi,
    Światowa Premiera: b/d
    Polska Premiera: b/d
    Reżyseria: Robert Schwentke,
    Zdjęcia: Florian Ballhaus
    Scenariusz: Brian Duffield, Akiva Goldsman, Mark Bomback,
    Muzyka: Joseph Trapanese
    Dystrybucja: Monolith Films
    O filmie: Zbuntowana (2015) - Filmweb





    Shailene Woodley - Marcus Eaton





    Nastoletnia Beatrice Prior w imię miłości porzuciła uporządkowany świat i teraz, naznaczona piętnem Niezgodnej, musi zmagać się z konsekwencjami swojej decyzji. Podjęta przez nią walka może mieć wpływ nie tylko na jej osobistą przyszłość, ale także wstrząsnąć posadami otaczającego świata. O ile oczywiście uda jej się udźwignąć spoczywające na niej brzemię, by w ogarniętym wojną domową świecie zdać niespodziewany i trudny egzamin dojrzałości. A jednocześnie nie utracić[span class="fullText hide"]tego, na czym zależy jej najbardziej.









    Kod:
    Format: Matroska
    Format version: Version 4 / Version 2
    File size : 10.5 GiB
    Duration: 1h 58mn
    Overall bit rate: 12.6 Mbps
    Encoded date: UTC 2015-07-25 10:28:20
    Writing application : mkvmerge v7.9.0 ('Birds') 64bit
    Writing library : libebml v1.3.1 + libmatroska v1.4.2
    DURATION: 01:58:59.136000000
    NUMBER_OF_FRAMES: 223098
    NUMBER_OF_BYTES : 571130880
    _STATISTICS_WRITING_APP : mkvmerge v7.9.0 ('Birds') 64bit
    _STATISTICS_WRITING_DATE_UT : 2015-07-25 10:28:20
    _STATISTICS_TAGS: BPS DURATION NUMBER_OF_FRAMES NUMBER_OF_BYTES
    
    Video
    ID: 1
    Format: AVC
    Format/Info : Advanced Video Codec
    Format profile: [email protected]
    Format settings, CABAC: Yes
    Format settings, ReFrames : 4 frames
    Codec ID: V_MPEG4/ISO/AVC
    Duration: 1h 58mn
    Bit rate: 12.0 Mbps
    Width : 1 920 pixels
    Height: 1 080 pixels
    Display aspect ratio: 16:9
    Frame rate mode : Constant
    Frame rate: 23.976 fps
    Color space : YUV
    Chroma subsampling: 4:2:0
    Bit depth : 8 bits
    Scan type : Progressive
    Bits/(Pixel*Frame): 0.241
    Stream size : 9.77 GiB (93%)
    Writing library : x264 core 133 r2334 a3ac64b
    Encoding settings : cabac=1 / ref=4 / deblock=1:-3:-3 / analyse=0x3:0x133 / me=umh / subme=11 / psy=1 / psy_rd=1.05:0.10 / mixed_ref=1 / me_range=64 / chroma_me=1 / trellis=2 / 8x8dct=1 / cqm=0 / deadzone=21,11 / fast_pskip=0 / chroma_qp_offset=-3 / threads=12 / lookahead_threads=2 / sliced_threads=0 / nr=0 / decimate=1 / interlaced=0 / bluray_compat=0 / constrained_intra=0 / bframes=8 / b_pyramid=2 / b_adapt=2 / b_bias=0 / direct=3 / weightb=1 / open_gop=0 / weightp=2 / keyint=250 / keyint_min=23 / scenecut=40 / intra_refresh=0 / rc_lookahead=80 / rc=2pass / mbtree=1 / bitrate=12000 / ratetol=1.0 / qcomp=0.60 / qpmin=0 / qpmax=69 / qpstep=4 / cplxblur=20.0 / qblur=0.5 / vbv_maxrate=40000 / vbv_bufsize=30000 / nal_hrd=none / ip_ratio=1.40 / aq=1:0.80
    Language: English
    Default : Yes
    Forced: No
    DURATION: 01:58:59.127000000
    NUMBER_OF_FRAMES: 171168
    NUMBER_OF_BYTES : 10713657486
    _STATISTICS_WRITING_APP : mkvmerge v7.9.0 ('Birds') 64bit
    _STATISTICS_WRITING_DATE_UT : 2015-07-25 10:28:20
    _STATISTICS_TAGS: BPS DURATION NUMBER_OF_FRAMES NUMBER_OF_BYTES
    
    Audio
    ID: 2
    Format: AC-3
    Format/Info : Audio Coding 3
    Mode extension: CM (complete main)
    Format settings, Endianness : Big
    Codec ID: A_AC3
    Duration: 1h 58mn
    Bit rate mode : Constant
    Bit rate: 640 Kbps
    Channel(s): 6 channels
    Channel positions : Front: L C R, Side: L R, LFE
    Sampling rate : 48.0 KHz
    Bit depth : 16 bits
    Compression mode: Lossy
    Stream size : 545 MiB (5%)
    Language: English
    Default : Yes
    Forced: No


    Nazwa pliku: Insurgent.2015.1080p.Half-SBS.3D.BluRay.x264.mkv
    Rozmiar pliku: 10763,67 MB
    CRC32: 6E1FDDB6
    Liczba segmentów: 1538
    Liczba mirrorów: 6
    Uploader: Kot Behemot
    Upload dla: p2m.net.pl





    Pokaż HC


    Ostatnio edytowane przez Gandalf ; 13.08.2015 o 09:57

  2. Kot Behemot upija się na koszt 3 osób:

    11bioly (28.08.2015), marcco (29.11.2015), psycho82  (5.02.2016)

Zakładki

Zakładki

Uprawnienia

  • Nie możesz zakładać nowych tematów
  • Nie możesz pisać wiadomości
  • Nie możesz dodawać załączników
  • Nie możesz edytować swoich postów
  •  
  • BB Code jest Włączony
  • EmotikonyWłączony
  • [IMG] kod jest Włączony
  • [VIDEO] code is Włączony
  • HTML jest Wyłączony
  • Trackbacki : Wyłączony
  • Pingbacki : Wyłączony
  • Refbacki : Włączony