Pokaż wyniki od 1 do 4 z 4
  1. #1
    Member Avatar Kot Behemot
    Dołączył
    20.07.2007
    Postów
    1 179
    Postawił
    0
    Piwa otrzymane
    2 792 (998)

    PL Terminator: Genisys | 2015 | PL | 1080p | Half-SBS 3D | BluRay | x264 | AC3


    Terminator: Genisys 3D (2015)
    Terminator: Genisys










    Ocena: 6,3
    Produkcja: USA,
    Gatunek: Akcja, Sci-Fi,
    Światowa Premiera: b/d
    Polska Premiera: b/d
    Reżyseria: Alan Taylor,
    Zdjęcia: Kramer Morgenthau
    Scenariusz: Laeta Kalogridis, Patrick Lussier,
    Muzyka: Lorne Balfe muzyka
    Dystrybucja: United International Pictures Sp z o.o.
    O filmie: Terminator: Genisys 3D (2015) - Filmweb







    Arnold Schwarzenegger - O'Brien
    Dayo Okeniyi - Danny Dyson
    Matt Smith - Alex
    Courtney B. Vance - Miles Dyson







    Niedaleka przyszłość. W roku 2029 John Connor stoi na czele podziemia, walcząc z zagrażającymi ludzkości cyborgami. W tej nierównej walce musi zmierzyć się z siłami przeszłości i … przyszłości. Aby zapewnić sobie życie, wysyła w przeszłość zaufanego porucznika Kyle'a Reese'a, który musi uratować matkę Connora przed śmiercią. Ale to, czego się dowiaduje, zmienia wszystko. Oprócz Ziemi A i Ziemi B istnieje jeszcze jedno uniwersum – C, które ma stać się miejscem dla ludzkości. Tymczasem SkyNet szykuje się do najpotężniejszej wojny w dziejach. Wojny, której celem jest zgładzenie gatunku ludzkiego.













    Kod:
    Format: Matroska
    Format version: Version 4 / Version 2
    File size : 10.9 GiB
    Duration: 2h 5mn
    Overall bit rate: 12.4 Mbps
    Encoded date: UTC 2015-10-13 18:13:25
    Writing application : mkvmerge v8.0.0 ('Til The Day That I Die') 64bit
    Writing library : libebml v1.3.1 + libmatroska v1.4.2
    DURATION: 02:05:43.072000000
    NUMBER_OF_FRAMES: 235721
    NUMBER_OF_BYTES : 362067456
    _STATISTICS_WRITING_APP : mkvmerge v8.0.0 ('Til The Day That I Die') 64bit
    _STATISTICS_WRITING_DATE_UT : 2015-10-13 18:13:25
    _STATISTICS_TAGS: BPS DURATION NUMBER_OF_FRAMES NUMBER_OF_BYTES
    
    
    Video
    ID: 1
    Format: AVC
    Format/Info : Advanced Video Codec
    Format profile: [email protected]
    Format settings, CABAC: Yes
    Format settings, ReFrames : 4 frames
    Codec ID: V_MPEG4/ISO/AVC
    Duration: 2h 5mn
    Bit rate: 12.0 Mbps
    Width : 1 920 pixels
    Height: 1 080 pixels
    Display aspect ratio: 16:9
    Frame rate mode : Constant
    Frame rate: 23.976 fps
    Color space : YUV
    Chroma subsampling: 4:2:0
    Bit depth : 8 bits
    Scan type : Progressive
    Bits/(Pixel*Frame): 0.241
    Stream size : 10.3 GiB (95%)
    Writing library : x264 core 133 r2334 a3ac64b
    Encoding settings : cabac=1 / ref=4 / deblock=1:-3:-3 / analyse=0x3:0x133 / me=umh / subme=11 / psy=1 / psy_rd=1.05:0.10 / mixed_ref=1 / me_range=64 / chroma_me=1 / trellis=2 / 8x8dct=1 / cqm=0 / deadzone=21,11 / fast_pskip=0 / chroma_qp_offset=-3 / threads=12 / lookahead_threads=2 / sliced_threads=0 / nr=0 / decimate=1 / interlaced=0 / bluray_compat=0 / constrained_intra=0 / bframes=8 / b_pyramid=2 / b_adapt=2 / b_bias=0 / direct=3 / weightb=1 / open_gop=0 / weightp=2 / keyint=250 / keyint_min=23 / scenecut=40 / intra_refresh=0 / rc_lookahead=80 / rc=2pass / mbtree=1 / bitrate=12000 / ratetol=1.0 / qcomp=0.60 / qpmin=0 / qpmax=69 / qpstep=4 / cplxblur=20.0 / qblur=0.5 / vbv_maxrate=40000 / vbv_bufsize=30000 / nal_hrd=none / ip_ratio=1.40 / aq=1:0.80
    Language: English
    Default : Yes
    Forced: No
    DURATION: 02:05:43.030000000
    NUMBER_OF_FRAMES: 180852
    NUMBER_OF_BYTES : 11301502953
    _STATISTICS_WRITING_APP : mkvmerge v8.0.0 ('Til The Day That I Die') 64bit
    _STATISTICS_WRITING_DATE_UT : 2015-10-13 18:13:25
    _STATISTICS_TAGS: BPS DURATION NUMBER_OF_FRAMES NUMBER_OF_BYTES
    
    
    Audio
    ID: 2
    Format: AC-3
    Format/Info : Audio Coding 3
    Mode extension: CM (complete main)
    Format settings, Endianness : Big
    Codec ID: A_AC3
    Duration: 2h 5mn
    Bit rate mode : Constant
    Bit rate: 384 Kbps
    Channel(s): 6 channels
    Channel positions : Front: L C R, Side: L R, LFE
    Sampling rate : 48.0 KHz
    Bit depth : 16 bits
    Compression mode: Lossy
    Stream size : 345 MiB (3%)
    Language: Polish
    Default : Yes
    Forced: No
    Kod:
    http://www.uloz.to/xhdFkooJ/terminator-genisys-2015-pl-1080p-half-sbs-3d-bluray-x264-ac3-part1-rar
    http://www.uloz.to/x8hTCppB/terminator-genisys-2015-pl-1080p-half-sbs-3d-bluray-x264-ac3-part2-rar
    http://www.uloz.to/x4K4pVVb/terminator-genisys-2015-pl-1080p-half-sbs-3d-bluray-x264-ac3-part3-rar
    http://www.uloz.to/xsy5Zbb5/terminator-genisys-2015-pl-1080p-half-sbs-3d-bluray-x264-ac3-part4-rar
    http://www.uloz.to/xtLHpkkX/terminator-genisys-2015-pl-1080p-half-sbs-3d-bluray-x264-ac3-part5-rar
    Kod:
    http://www82.zippyshare.com/v/heqCrmq3/file.html
    http://www82.zippyshare.com/v/Sb9wMBpg/file.html
    http://www82.zippyshare.com/v/55OOjqYV/file.html
    http://www82.zippyshare.com/v/YbuRwttl/file.html
    http://www82.zippyshare.com/v/ghic5VnE/file.html
    http://www82.zippyshare.com/v/IbcHomUP/file.html
    http://www82.zippyshare.com/v/EVuYevMd/file.html
    http://www82.zippyshare.com/v/mTdB8Iyv/file.html
    http://www82.zippyshare.com/v/rg1yfBkS/file.html
    http://www82.zippyshare.com/v/1nKnNPjl/file.html
    http://www82.zippyshare.com/v/EbysvEX1/file.html
    http://www82.zippyshare.com/v/W3bvb0pG/file.html
    http://www82.zippyshare.com/v/mbzaDbdT/file.html
    http://www82.zippyshare.com/v/OXcQ8jFS/file.html
    http://www82.zippyshare.com/v/UQ0FJqxq/file.html
    http://www82.zippyshare.com/v/bZrzLGNm/file.html
    http://www82.zippyshare.com/v/ovY8Tn8e/file.html
    http://www82.zippyshare.com/v/UMTzsf2Y/file.html
    http://www82.zippyshare.com/v/rRzLdC9P/file.html
    http://www82.zippyshare.com/v/wNaT1KGC/file.html
    http://www82.zippyshare.com/v/DurogYph/file.html
    http://www82.zippyshare.com/v/AoW3XTie/file.html
    http://www82.zippyshare.com/v/2Qob2SOu/file.html
    http://www82.zippyshare.com/v/ESLvkeK5/file.html
    http://www82.zippyshare.com/v/NOctJvg2/file.html
    http://www82.zippyshare.com/v/vsTXwqMR/file.html
    http://www82.zippyshare.com/v/fPtH1TDX/file.html
    http://www82.zippyshare.com/v/awe9y4Vb/file.html
    http://www82.zippyshare.com/v/Opaf0KNk/file.html
    http://www82.zippyshare.com/v/zoGrhWol/file.html
    http://www82.zippyshare.com/v/TJvJ2Um5/file.html
    http://www82.zippyshare.com/v/x4lQnWqY/file.html
    http://www82.zippyshare.com/v/IcFmZKQr/file.html
    http://www82.zippyshare.com/v/MgMdQKL0/file.html
    http://www82.zippyshare.com/v/19JqCuWx/file.html
    http://www82.zippyshare.com/v/ukjokgxw/file.html
    http://www82.zippyshare.com/v/kfOIrrSs/file.html
    http://www82.zippyshare.com/v/HMcbRptG/file.html
    http://www82.zippyshare.com/v/25OpN4qn/file.html
    http://www82.zippyshare.com/v/uUg96xFp/file.html
    http://www82.zippyshare.com/v/EmfBhRjF/file.html
    http://www82.zippyshare.com/v/1xYshx7W/file.html
    http://www82.zippyshare.com/v/hFyBK7Sr/file.html
    http://www82.zippyshare.com/v/i9aIsARP/file.html
    http://www82.zippyshare.com/v/NKN7M4NJ/file.html
    http://www82.zippyshare.com/v/lil1AyLp/file.html
    http://www82.zippyshare.com/v/wA3NHLGd/file.html
    http://www82.zippyshare.com/v/tRPFrL7o/file.html
    http://www82.zippyshare.com/v/08SS3idf/file.html
    http://www82.zippyshare.com/v/OjNAOgO4/file.html
    http://www82.zippyshare.com/v/mNYeU5za/file.html
    http://www82.zippyshare.com/v/k2XfAY9j/file.html
    http://www82.zippyshare.com/v/A5dfQ8Wn/file.html
    http://www82.zippyshare.com/v/WodTaux4/file.html
    http://www82.zippyshare.com/v/KHHt7tAc/file.html
    http://www82.zippyshare.com/v/MB5rVnJ2/file.html
    http://www82.zippyshare.com/v/ST0OMWhQ/file.html
    http://www82.zippyshare.com/v/VIbL2JxO/file.html
    http://www82.zippyshare.com/v/WZ8msUUh/file.html
    http://www82.zippyshare.com/v/arEaT7xY/file.html
    http://www82.zippyshare.com/v/X0KyVdSY/file.html
    http://www82.zippyshare.com/v/lTVk7Yqf/file.html
    Kod:
    https://1fichier.com/?101s45qpzy

    Ostatnio edytowane przez haq ; 7.11.2015 o 13:20

  2. Kot Behemot upija się na koszt 6 osób:

    Adamiano (5.12.2015), astra1 (8.11.2015), bedi128 (9.11.2015), flyhaba (30.01.2016), murek06 (1.11.2015), rafal23 (5.11.2015)

  3. #2
    Member
    Dołączył
    7.05.2012
    Skąd
    POLSKA
    Wiek
    36
    Postów
    30
    Postawił
    7
    Piwa otrzymane
    24 (24)

    Domyślnie

    nie można pobrać. błąd "przestarzała wtyczka"

    Ale możliwe że używam złej wersji JDownloader...

    wszystko gra. jdownloader 2 nie sprawił problemu. spraswny, wszystko śmiga-jak zawsze:-)

    up sprawny znaczy się


    Na przyszłość proszę edytować post zamiast pisać 4 jeden pod drugim - Gandalf
    Ostatnio edytowane przez Gandalf ; 2.11.2015 o 21:51

  4. #3
    Member
    Dołączył
    20.02.2012
    Postów
    7
    Postawił
    17
    Piwa otrzymane
    13 (13)

    Domyślnie

    problemy z hostingiem . Wszystkie trzy party nie da sie sciagnac kozystam z jdowloader 2

  5. #4
    Member Avatar Kot Behemot
    Dołączył
    20.07.2007
    Postów
    1 179
    Postawił
    0
    Piwa otrzymane
    2 792 (998)

    Domyślnie

    Poprawione, już powinno działać. Skopiuj linki.

Zakładki

Zakładki

Uprawnienia

  • Nie możesz zakładać nowych tematów
  • Nie możesz pisać wiadomości
  • Nie możesz dodawać załączników
  • Nie możesz edytować swoich postów
  •  
  • BB Code jest Włączony
  • EmotikonyWłączony
  • [IMG] kod jest Włączony
  • [VIDEO] code is Włączony
  • HTML jest Wyłączony
  • Trackbacki : Wyłączony
  • Pingbacki : Wyłączony
  • Refbacki : Włączony