Pokaż wyniki od 1 do 1 z 1
  1. #1
    Ultimate Uploader Avatar Maestro NEC
    Dołączył
    31.03.2014
    Wiek
    49
    Postów
    82
    Postawił
    0
    Piwa otrzymane
    184 (80)

    OK Akademia Policyjna 2: Pierwsze zadanie(1985) Police Academy 2: Their First Assignment


    Akademia Policyjna 2: Pierwsze zadanie (1985)
    Police Academy 2: Their First Assignment







    Ocena: 6,8/10
    Produkcja: USA
    Gatunek: Komedia kryminalna
    Światowa Premiera: 1985-03-29
    Polska Premiera: b/d
    Reżyseria: Jerry Paris
    Zdjęcia: James Crabe
    Scenariusz: David SheffieldBarry W. BlausteinNeal Israel
    Muzyka: Robert Folk
    Czas trwania: 1 godz. 37 min.
    Dystrybucja: b/d
    O filmie: Akademia Policyjna 2: Pierwsze zadanie (1985) - Filmweb





    Steve Guttenberg - Carey Mahoney
    Bubba Smith - Moses Hightower
    David Graf - Tackleberry
    Michael Winslow - Larvell Jones





    Absolwenci Akademii Policyjnej rozpoczynają służbę i otrzymują zadanie zaprowadzenia porządku w najbardziej niebezpiecznej dzielnicy miasta. Okazuje się, że komendantem tamtejszego posterunku jest Pete Lassard (Howard Hesseman), brat szefa Akademii. Świeżo upieczeni policjanci robią wszystko, aby sprostać zadaniu, aczkolwiek nie zawsze im się to udaje. Podczas pierwszej akcji - próby udaremnienia napadu na sklep - wezwane patrole strzelają do siebie nawzajem...









    Kod:
    Format : Matroska
    Format version : Version 2
    File size: 3.28 GiB
    Duration : 1h 27mn
    Overall bit rate : 5 384 Kbps
    Writing application: x264.exe
    Writing library: mkv2rls v1.4 (date: 2011 mar 29)
    
    Video
    ID : 1
    Format : AVC
    Format/Info: Advanced Video Codec
    Format profile : [email protected]
    Format settings, CABAC : Yes
    Format settings, ReFrames: 5 frames
    Codec ID : V_MPEG4/ISO/AVC
    Duration : 1h 27mn
    Bit rate : 4 614 Kbps
    Width: 1 280 pixels
    Height : 720 pixels
    Display aspect ratio : 16:9
    Frame rate mode: Constant
    Frame rate : 23.976 fps
    Color space: YUV
    Chroma subsampling : 4:2:0
    Bit depth: 8 bits
    Scan type: Progressive
    Bits/(Pixel*Frame) : 0.209
    Stream size: 2.74 GiB (84%)
    Writing library: x264 core 125 r2200 999b753
    Encoding settings: cabac=1 / ref=5 / deblock=1:0:0 / analyse=0x3:0x113 / me=umh / subme=8 / psy=1 / psy_rd=1.00:0.00 / mixed_ref=1 / me_range=16 / chroma_me=1 / trellis=1 / 8x8dct=1 / cqm=0 / deadzone=21,11 / fast_pskip=1 / chroma_qp_offset=-2 / threads=6 / lookahead_threads=1 / sliced_threads=0 / nr=0 / decimate=1 / interlaced=0 / bluray_compat=0 / constrained_intra=0 / bframes=3 / b_pyramid=2 / b_adapt=2 / b_bias=0 / direct=3 / weightb=1 / open_gop=0 / weightp=2 / keyint=240 / keyint_min=24 / scenecut=40 / intra_refresh=0 / rc_lookahead=50 / rc=2pass / mbtree=1 / bitrate=4614 / ratetol=1.0 / qcomp=0.60 / qpmin=0 / qpmax=69 / qpstep=4 / cplxblur=20.0 / qblur=0.5 / ip_ratio=1.40 / aq=1:1.00
    Language : English
    Default: Yes
    Forced : No
    
    Audio
    ID : 2
    Format : DTS
    Format/Info: Digital Theater Systems
    Mode : 16
    Format settings, Endianness: Big
    Codec ID : A_DTS
    Duration : 1h 27mn
    Bit rate mode: Constant
    Bit rate : 768 Kbps
    Channel count: 6 channels
    Original Channel count : 1 channel
    Channel positions: Front: C
    Sampling rate: 48.0 KHz
    Bit depth: 24 bits
    Compression mode : Lossy
    Stream size: 479 MiB (14%)
    Language : English
    Default: Yes
    Forced : No
    
    Text
    ID : 3
    Format : UTF-8
    Codec ID : S_TEXT/UTF8
    Codec ID/Info: UTF-8 Plain Text
    Language : English
    Default: No
    Forced : No


    Wielkość uploadu: 3356,27MB
    Ilość segmentów: 270
    Losowa wielkość segmentów
    Uploader: Maestro NEC
    Upload dla: p2m.net.pl
    Liczba mirrorów: 11





    Pokaż HC


     
    Wszystko w porządku
    Zakończenie sprawdzania segmentów: 2014-04-07 22:26:32
    //bodziosol

    Ostatnio edytowane przez bodziosol ; 7.04.2014 o 23:25

  2. Maestro NEC upija się na koszt:

    W (7.04.2014)

Zakładki

Zakładki

Uprawnienia

  • Nie możesz zakładać nowych tematów
  • Nie możesz pisać wiadomości
  • Nie możesz dodawać załączników
  • Nie możesz edytować swoich postów
  •  
  • BB Code jest Włączony
  • EmotikonyWłączony
  • [IMG] kod jest Włączony
  • [VIDEO] code is Włączony
  • HTML jest Wyłączony
  • Trackbacki : Wyłączony
  • Pingbacki : Wyłączony
  • Refbacki : Włączony