Pokaż wyniki od 1 do 3 z 3
  1. #1
    Member Avatar Kot Behemot
    Dołączył
    20.07.2007
    Postów
    1 179
    Postawił
    0
    Piwa otrzymane
    2 791 (998)

    OK The Stag | 2013 | 720p | x264


    The Stag (2013)
    b/d










    Ocena: 7,5/10
    Produkcja: Irlandia,
    Gatunek: Komedia,
    Światowa Premiera: 2013-09-10
    Polska Premiera: b/d
    Reżyseria: John Butler
    Zdjęcia: Peter Robertson
    Scenariusz: John ButlerPeter McDonald
    Muzyka: Stephen Rennicks
    Czas trwania: 1 godz. 34 min.
    Dystrybucja: b/d
    O filmie: The Stag (2013) - Filmweb







    Andrew Scott - Davin
    Peter McDonald - Maszyna
    Brian Gleeson - Simon
    Hugh O'Conor - Fionnan







    Fionan unika zaangażowania w organizację ślubu jak ognia. Jego narzeczona, Ruth, chcąc by nabrał trochę dystansu i się wyluzował, organizuje mu spotkanie ze znajomymi.













    Kod:
    Format : Matroska
    Format version : Version 4 / Version 2
    File size: 3.28 GiB
    Duration : 1h 23mn
    Overall bit rate : 5 594 Kbps
    Encoded date : UTC 2014-06-23 18:35:00
    Writing application: mkvmerge v6.5.0 ('Isn't she lovely') built on Oct 20 2013 12:50:05
    Writing library: libebml v1.3.0 + libmatroska v1.4.1
    
    
    Video
    ID : 1
    Format : AVC
    Format/Info: Advanced Video Codec
    Format profile : [email protected]
    Format settings, CABAC : Yes
    Format settings, ReFrames: 5 frames
    Codec ID : V_MPEG4/ISO/AVC
    Duration : 1h 23mn
    Bit rate : 4 086 Kbps
    Width: 1 280 pixels
    Height : 720 pixels
    Display aspect ratio : 16:9
    Frame rate mode: Constant
    Frame rate : 23.976 fps
    Color space: YUV
    Chroma subsampling : 4:2:0
    Bit depth: 8 bits
    Scan type: Progressive
    Bits/(Pixel*Frame) : 0.185
    Stream size: 2.33 GiB (71%)
    Writing library: x264 core 142 r2431kMod ac76440
    Encoding settings: cabac=1 / ref=5 / deblock=1:0:0 / analyse=0x3:0x133 / me=umh / subme=7 / psy=1 / fade_compensate=0.00 / psy_rd=1.00:0.00 / mixed_ref=1 / me_range=16 / chroma_me=1 / trellis=1 / 8x8dct=1 / cqm=0 / deadzone=21,11 / fast_pskip=0 / chroma_qp_offset=-2 / threads=6 / lookahead_threads=1 / sliced_threads=0 / nr=0 / decimate=1 / interlaced=0 / bluray_compat=0 / constrained_intra=0 / fgo=0 / bframes=3 / b_pyramid=2 / b_adapt=2 / b_bias=0 / direct=3 / weightb=1 / open_gop=0 / weightp=2 / keyint=250 / keyint_min=23 / scenecut=40 / intra_refresh=0 / rc_lookahead=50 / rc=2pass / mbtree=1 / bitrate=4086 / ratetol=1.0 / qcomp=0.60 / qpmin=0 / qpmax=69 / qpstep=4 / cplxblur=20.0 / qblur=0.5 / ip_ratio=1.40 / aq=1:1.00
    Language : English
    Default: No
    Forced : No
    
    
    Audio
    ID : 2
    Format : DTS
    Format/Info: Digital Theater Systems
    Mode : 16
    Format settings, Endianness: Big
    Codec ID : A_DTS
    Duration : 1h 23mn
    Bit rate mode: Constant
    Bit rate : 1 509 Kbps
    Channel(s) : 6 channels
    Channel positions: Front: L C R, Side: L R, LFE
    Sampling rate: 48.0 KHz
    Bit depth: 24 bits
    Compression mode : Lossy
    Stream size: 905 MiB (27%)
    Language : English
    Default: Yes
    Forced : No


    Nazwa pliku: stag.2013.720p.bluray.x264.mkv
    Rozmiar pliku: 3355,80 MB
    CRC32: 98CD65F5
    Liczba segmentów: 480
    Liczba mirrorów: 6
    Uploader: Kot Behemot
    Upload dla: p2m.net.pl







    Pokaż HC

     
    Wszystko w porządku
    Zakończenie sprawdzania segmentów: 2014-06-24 22:10:25


    Ostatnio edytowane przez Markus* ; 16.08.2014 o 17:45

  2. Kot Behemot upija się na koszt 9 osób:

    Andzia88 (24.06.2014), cezar116  (29.06.2014), DiSC (29.06.2014), jedrykd (7.12.2014), Pieseł (9.07.2014), raf194 (13.07.2014), Samrat (18.02.2015), spirala2008 (29.06.2014), W (15.08.2014)

  3. #2
    Donator
    Dołączył
    28.07.2014
    Wiek
    41
    Postów
    1
    Postawił
    0
    Piwa otrzymane
    1 (1)

    Domyślnie

    Ma ktoś napisy do tego filmu?!

  4. chodki upija się na koszt:

    W (15.08.2014)

  5. #3
    W
    W jest offline
    Master Avatar W
    Dołączył
    28.09.2006
    Postów
    1 276
    Postawił
    40 623
    Piwa otrzymane
    1 484 (992)

    Domyślnie

    Cytat Napisał chodki Zobacz post
    Ma ktoś napisy do tego filmu?!
    a co niby fajny ten film ?

Zakładki

Zakładki

Uprawnienia

  • Nie możesz zakładać nowych tematów
  • Nie możesz pisać wiadomości
  • Nie możesz dodawać załączników
  • Nie możesz edytować swoich postów
  •  
  • BB Code jest Włączony
  • EmotikonyWłączony
  • [IMG] kod jest Włączony
  • [VIDEO] code is Włączony
  • HTML jest Wyłączony
  • Trackbacki : Wyłączony
  • Pingbacki : Wyłączony
  • Refbacki : Włączony