Pokaż wyniki od 1 do 7 z 7
  1. #1
    Professional Uploader Avatar Léon
    Dołączył
    16.12.2013
    Skąd
    Paryż
    Postów
    5 411
    Postawił
    33
    Piwa otrzymane
    16 405 (4 968)

    ENG Noe: Wybrany przez Boga | 2013 [1080p][BluRay]


    Noe: Wybrany przez Boga (2014)
    Noah







    Ocena: 6,2/10
    Produkcja: USA,
    Gatunek: Dramat, Fantasy,
    Światowa Premiera: 2014-03-10
    Polska Premiera: 2014-03-28
    Reżyseria: Darren Aronofsky
    Zdjęcia: Matthew Libatique
    Scenariusz: Darren AronofskyAri Handel
    Muzyka: Clint Mansell
    Czas trwania: 2 godz. 18 min.
    Dystrybucja: United International Pictures Sp z o.o.
    O filmie: Noe: Wybrany przez Boga (2014) - Filmweb





    Russell Crowe - Noe
    Jennifer Connelly - Naameh
    Ray Winstone - Tubal-Kain
    Anthony Hopkins - Matuzalem





    Zainspirowany biblijną historią o sile ducha, poświęceniu i nadziei Darren Aronofsky przekłada na język filmu osobistą wizję opowieści o Noem. Russell Crowe wciela się w niej w postać człowieka, który został wybrany do podjęcia wielkiej misji uratowania rodzaju ludzkiego oraz zwierząt przed apokaliptycznym potopem, który ma zniszczyć zepsuty świat. Film podejmuje towarzyszące człowiekowi od zarania dziejów tematy dobra i zła, zniszczenia i miłosierdzia, nadziei oraz rodziny.









    Kod:
    Format : Matroska
    Format version : Version 4 / Version 2
    File size: 9.83 GiB
    Duration : 2h 17mn
    Overall bit rate : 10.2 Mbps
    Encoded date : UTC 2014-07-05 05:46:00
    Writing application: mkvmerge v6.2.0 ('Promised Land') built on Apr 28 2013 12:22:01
    Writing library: libebml v1.3.0 + libmatroska v1.4.0
    
    Video
    ID : 1
    Format : AVC
    Format/Info: Advanced Video Codec
    Format profile : [email protected]
    Format settings, CABAC : Yes
    Format settings, ReFrames: 4 frames
    Codec ID : V_MPEG4/ISO/AVC
    Duration : 2h 17mn
    Bit rate : 8 702 Kbps
    Width: 1 920 pixels
    Height : 1 040 pixels
    Display aspect ratio : 1.85:1
    Frame rate mode: Constant
    Frame rate : 23.976 fps
    Color space: YUV
    Chroma subsampling : 4:2:0
    Bit depth: 8 bits
    Scan type: Progressive
    Bits/(Pixel*Frame) : 0.182
    Stream size: 8.18 GiB (83%)
    Writing library: x264 
    Language : English
    Default: Yes
    Forced : No
    
    Audio
    ID : 2
    Format : DTS
    Format/Info: Digital Theater Systems
    Mode : 16
    Format settings, Endianness: Big
    Codec ID : A_DTS
    Duration : 2h 17mn
    Bit rate mode: Constant
    Bit rate : 1 509 Kbps
    Channel(s) : 6 channels
    Channel positions: Front: L C R, Side: L R, LFE
    Sampling rate: 48.0 KHz
    Bit depth: 24 bits
    Compression mode : Lossy
    Stream size: 1.45 GiB (15%)
    Language : English
    Default: Yes
    Forced : No

    Part 1


    Nazwa pliku: Noah.2013.1080p.BluRay.x264.part1.rar
    Rozmiar pliku: 3950,00 MB
    CRC32: 870A1DA3
    Liczba segmentów: 467
    Liczba mirrorów: 9
    Uploader: Leon Zawodowiec
    Upload dla: p2m.net.pl


    Part 2


    Nazwa pliku: Noah.2013.1080p.BluRay.x264.part2.rar
    Rozmiar pliku: 3950,00 MB
    CRC32: 5A185F0D
    Liczba segmentów: 460
    Liczba mirrorów: 9
    Uploader: Leon Zawodowiec
    Upload dla: p2m.net.pl


    Part 3


    Nazwa pliku: Noah.2013.1080p.BluRay.x264.part3.rar
    Rozmiar pliku: 2882,78 MB
    CRC32: 224B9575
    Liczba segmentów: 341
    Liczba mirrorów: 9
    Uploader: Leon Zawodowiec
    Upload dla: p2m.net.pl




    Part 1


    Pokaż HC


     
    Wszystko w porządku
    Zakończenie sprawdzania segmentów: 2014-07-10 14:28:50


    Part 2


    Pokaż HC


     
    Wszystko w porządku
    Zakończenie sprawdzania segmentów: 2014-07-10 14:24:19


    Part 3


    Pokaż HC


     
    Wszystko w porządku
    Zakończenie sprawdzania segmentów: 2014-07-10 14:20:46
    bodziosol




    Ostatnio edytowane przez bodziosol ; 10.07.2014 o 15:33




  2. Léon upija się na koszt 17 osób:

    Andzia88 (6.07.2014), cezar116  (7.07.2014), chacal69 (12.07.2014), cystofor (6.07.2014), decoya (6.07.2014), Duff  (19.07.2014), dybomayday (14.07.2014), lordlele (6.07.2014), luzak2501 (8.07.2014), macko33 (6.07.2014), norobr (18.07.2014), rafaelo1979 (26.07.2014), rafal23 (16.07.2014), Rubicon (16.07.2014), rulonista (21.08.2014), W (6.07.2014), zanik (13.07.2014)

  3. #2
    Donator
    Dołączył
    26.01.2012
    Postów
    2
    Postawił
    0
    Piwa otrzymane
    3 (3)

    Domyślnie

    czesc, co zrobic z tymi trzema plikami, nie moge ich rozpakować

  4. cooller25 upija się na koszt:

    W (18.07.2014)

  5. #3
    Moderator
    Avatar bodziosol
    Dołączył
    27.06.2008
    Postów
    169
    Postawił
    76
    Piwa otrzymane
    464 (362)

    Domyślnie

    Wyskakuje jakiś komunikat czy nic się nie dzieje?

  6. bodziosol upija się na koszt:

    W (18.07.2014)

  7. #4
    Donator
    Dołączył
    26.01.2012
    Postów
    2
    Postawił
    0
    Piwa otrzymane
    3 (3)

    Domyślnie

    ! E:\MailShare\Downloads\Noah.2013.1080p.BluRay.x264.part1.rar: Unexpected end of archive

  8. cooller25 upija się na koszt:

    W (19.07.2014)

  9. #5
    Master
    Dołączył
    13.10.2006
    Postów
    194
    Postawił
    111
    Piwa otrzymane
    363 (259)

    Domyślnie

    Cytat Napisał cooller25 Zobacz post
    ! E:\MailShare\Downloads\Noah.2013.1080p.BluRay.x264.part1.rar: Unexpected end of archive
    Napraw, lub pobierz od nowa part 1.

  10. Black upija się na koszt:

    W (19.07.2014)

  11. #6
    Member
    Dołączył
    28.12.2013
    Skąd
    pomorskie
    Wiek
    40
    Postów
    14
    Postawił
    279
    Piwa otrzymane
    35 (31)

    Domyślnie

    nie wiem co jest już 4 raz pobieram i mi się nie rozpakowuje bo błędy crc i o co chodzi i to z większością filmów

  12. rafaelo1979 upija się na koszt:

    W (27.07.2014)

  13. #7
    Professional Uploader Avatar Léon
    Dołączył
    16.12.2013
    Skąd
    Paryż
    Postów
    5 411
    Postawił
    33
    Piwa otrzymane
    16 405 (4 968)

    Domyślnie

    wszystkie błędy zgłaszajcie klikając w ten link




  14. Léon upija się na koszt:

    W (27.07.2014)

Zakładki

Zakładki

Uprawnienia

  • Nie możesz zakładać nowych tematów
  • Nie możesz pisać wiadomości
  • Nie możesz dodawać załączników
  • Nie możesz edytować swoich postów
  •  
  • BB Code jest Włączony
  • EmotikonyWłączony
  • [IMG] kod jest Włączony
  • [VIDEO] code is Włączony
  • HTML jest Wyłączony
  • Trackbacki : Wyłączony
  • Pingbacki : Wyłączony
  • Refbacki : Włączony