Pokaż wyniki od 1 do 1 z 1
  1. #1
    Professional Uploader Avatar Léon
    Dołączył
    16.12.2013
    Skąd
    Paryż
    Postów
    5 411
    Postawił
    33
    Piwa otrzymane
    16 405 (4 968)

    ENG Niebo istnieje... naprawdę | 2014 [720p][BluRay]


    Niebo istnieje... naprawdę (2014)
    Heaven Is for Real







    Ocena: 6,9/10
    Produkcja: USA,
    Gatunek: Dramat,
    Światowa Premiera: 2014-04-16
    Polska Premiera: 2014-04-16
    Reżyseria: Randall Wallace
    Zdjęcia: Dean Semler
    Scenariusz: Chris ParkerRandall Wallace
    Muzyka: Nick Glennie-Smith
    Czas trwania: 1 godz. 40 min.
    Dystrybucja: United International Pictures Sp z o.o.
    O filmie: Niebo istnieje... naprawdę (2014) - Filmweb





    Greg Kinnear - Todd Burpo
    Kelly Reilly - Sonja Burpo
    Thomas Haden Church - Jay Wilkins
    Connor Corum - Colton Burpo





    Film "Niebo istnieje... naprawdę" zrealizowany został na podstawie światowego bestselleru. To prawdziwa historia Coltona Burpo (Connor Corum) - chłopca, który podczas operacji znalazł się na granicy życia i śmierci. Rodzice (Kelly Reilly i Greg Kinnear) nie spodziewali się, że w ciągu następnych kilku miesięcy usłyszą piękną i wyjątkową opowieść o podróży chłopca do nieba i z powrotem. Czteroletni Colton oznajmił rodzicom, że opuścił swoje ciało podczas zabiegu, opisując, co[span class="fullText hide"]jego rodzice robili, gdy on leżał na stole operacyjnym. Mówił o wizycie w niebie i przekazywał historie ludzi, z którymi spotkał się w zaświatach, a których nigdy wcześniej nie widział. Wspominał nawet o zdarzeniach mających miejsce jeszcze przed jego narodzinami. Zaskoczył opisami i mało znanymi szczegółami o niebie, dokładnie pasującymi do tego, co podaje Biblia, a o których, jako dziecko nie mógł wiedzieć. Colton opowiadał z rozbrajającą dziecięcą niewinnością o spotkaniach z członkami rodziny, którzy już odeszli z tego świata.









    Kod:
    Format : Matroska
    Format version : Version 4 / Version 2
    File size: 4.37 GiB
    Duration : 1h 39mn
    Overall bit rate : 6 282 Kbps
    Encoded date : UTC 2014-07-02 21:20:24
    Writing application: mkvmerge v6.2.0 ('Promised Land') built on Apr 28 2013 12:22:01
    Writing library: libebml v1.3.0 + libmatroska v1.4.0
    
    Video
    ID : 1
    Format : AVC
    Format/Info: Advanced Video Codec
    Format profile : [email protected]
    Format settings, CABAC : Yes
    Format settings, ReFrames: 5 frames
    Codec ID : V_MPEG4/ISO/AVC
    Duration : 1h 39mn
    Bit rate : 4 774 Kbps
    Width: 1 280 pixels
    Height : 536 pixels
    Display aspect ratio : 2.40:1
    Frame rate mode: Constant
    Frame rate : 23.976 fps
    Color space: YUV
    Chroma subsampling : 4:2:0
    Bit depth: 8 bits
    Scan type: Progressive
    Bits/(Pixel*Frame) : 0.290
    Stream size: 3.23 GiB (74%)
    Writing library: x264 
    Language : English
    Default: Yes
    Forced : No
    
    Audio
    ID : 2
    Format : DTS
    Format/Info: Digital Theater Systems
    Mode : 16
    Format settings, Endianness: Big
    Codec ID : A_DTS
    Duration : 1h 39mn
    Bit rate mode: Constant
    Bit rate : 1 509 Kbps
    Channel(s) : 6 channels
    Channel positions: Front: L C R, Side: L R, LFE
    Sampling rate: 48.0 KHz
    Bit depth: 24 bits
    Compression mode : Lossy
    Stream size: 1.05 GiB (24%)
    Language : English
    Default: Yes
    Forced : No

    Part 1


    Nazwa pliku: Heaven.Is.For.Real.2014.720p.BluRay.x264.part1.rar
    Rozmiar pliku: 3450,00 MB
    CRC32: C29AF1BE
    Liczba segmentów: 405
    Liczba mirrorów: 9
    Uploader: Leon
    Upload dla: p2m.net.pl


    Part 2


    Nazwa pliku: Heaven.Is.For.Real.2014.720p.BluRay.x264.part2.rar
    Rozmiar pliku: 1365,73 MB
    CRC32: 630BC42C
    Liczba segmentów: 163
    Liczba mirrorów: 8
    Uploader: Leon
    Upload dla: p2m.net.pl




    Part 1


    Pokaż HC

     
    Wszystko w porządku
    Zakończenie sprawdzania segmentów: 2014-07-13 05:40:48

    Part 2


    Pokaż HC

     
    Wszystko w porządku
    Zakończenie sprawdzania segmentów: 2014-07-13 05:40:12

    Gandalf



    Ostatnio edytowane przez Gandalf ; 13.07.2014 o 20:19




  2. Léon upija się na koszt 3 osób:

    Andzia88 (12.07.2014), rulonista (21.08.2014), W (13.07.2014)

Zakładki

Zakładki

Uprawnienia

  • Nie możesz zakładać nowych tematów
  • Nie możesz pisać wiadomości
  • Nie możesz dodawać załączników
  • Nie możesz edytować swoich postów
  •  
  • BB Code jest Włączony
  • EmotikonyWłączony
  • [IMG] kod jest Włączony
  • [VIDEO] code is Włączony
  • HTML jest Wyłączony
  • Trackbacki : Wyłączony
  • Pingbacki : Wyłączony
  • Refbacki : Włączony