Pokaż wyniki od 1 do 1 z 1
  1. #1
    Professional Uploader Avatar Léon
    Dołączył
    16.12.2013
    Skąd
    Paryż
    Postów
    5 411
    Postawił
    33
    Piwa otrzymane
    16 405 (4 968)

    ENG Sabotage | 2014 [PL.SUB][720p][BRRip]


    Sabotage (2014)







    Ocena: 5,7/10
    Produkcja: USA,
    Gatunek: Thriller, Akcja,
    Światowa Premiera: 2014-03-28
    Polska Premiera: b/d
    Reżyseria: David Ayer
    Zdjęcia: Bruce McCleery
    Scenariusz: Skip Woods
    Muzyka: David Sardy
    Czas trwania: 1 godz. 49 min.
    Dystrybucja: b/d
    O filmie: Sabotage (2014) - Filmweb





    Arnold Schwarzenegger - John "Breacher" Wharton
    Sam Worthington - Monster
    Terrence Howard - Sugar
    Olivia Williams - Badaczka Caroline Brentwood





    Tajniacy z DEA giną po okradzeniu siedziby kartelu narkotykowego.









    Kod:
    Format : AVI
    Format/Info: Audio Video Interleave
    Format profile : OpenDML
    File size: 3.18 GiB
    Duration : 1h 49mn
    Overall bit rate : 4 149 Kbps
    Writing application: VirtualDubMod 1.5.10.3 | www.virtualdub-fr.org || (build 2550/release)
    Writing library: VirtualDubMod build 2550/release
    
    Video
    ID : 0
    Format : MPEG-4 Visual
    Format profile : Advanced [email protected]
    Format settings, BVOP: 2
    Format settings, QPel: No
    Format settings, GMC : No warppoints
    Format settings, Matrix: Custom
    Codec ID : XVID
    Codec ID/Hint: XviD
    Duration : 1h 49mn
    Bit rate : 3 499 Kbps
    Width: 1 288 pixels
    Height : 696 pixels
    Display aspect ratio : 1.85:1
    Frame rate : 23.976 fps
    Color space: YUV
    Chroma subsampling : 4:2:0
    Bit depth: 8 bits
    Scan type: Progressive
    Compression mode : Lossy
    Bits/(Pixel*Frame) : 0.163
    Stream size: 2.68 GiB (84%)
    Writing library: XviD 1.2.1 (UTC 2008-12-04)
    
    Audio
    ID : 1
    Format : AC-3
    Format/Info: Audio Coding 3
    Mode extension : CM (complete main)
    Format settings, Endianness: Big
    Codec ID : 2000
    Duration : 1h 49mn
    Bit rate mode: Constant
    Bit rate : 640 Kbps
    Channel(s) : 6 channels
    Channel positions: Front: L C R, Side: L R, LFE
    Sampling rate: 48.0 KHz
    Bit depth: 16 bits
    Compression mode : Lossy
    Stream size: 502 MiB (15%)
    Alignment: Split accross interleaves
    Interleave, duration : 42 ms (1.00 video frame)
    Interleave, preload duration : 500 ms


    Nazwa pliku: Sabotage.2014.SUB.PL.720p.BRRip.XviD.AC3.rar
    Rozmiar pliku: 3490,29 MB
    CRC32: 70A4C87F
    Liczba segmentów: 410
    Liczba mirrorów: 8
    Uploader: Leon Zawodowiec
    Upload dla: p2m.net.pl





    Pokaż HC

     
    Wszystko w porządku
    Zakończenie sprawdzania segmentów: 2014-07-13 06:19:45

    Gandalf



    Ostatnio edytowane przez Gandalf ; 13.07.2014 o 20:51




  2. Léon upija się na koszt 5 osób:

    cezar116  (18.07.2014), jedrykd (7.12.2014), mikswi (13.07.2014), Pieseł (16.07.2014), raf194 (14.07.2014)

Zakładki

Zakładki

Uprawnienia

  • Nie możesz zakładać nowych tematów
  • Nie możesz pisać wiadomości
  • Nie możesz dodawać załączników
  • Nie możesz edytować swoich postów
  •  
  • BB Code jest Włączony
  • EmotikonyWłączony
  • [IMG] kod jest Włączony
  • [VIDEO] code is Włączony
  • HTML jest Wyłączony
  • Trackbacki : Wyłączony
  • Pingbacki : Wyłączony
  • Refbacki : Włączony