Pokaż wyniki od 1 do 1 z 1
  1. #1
    Member Avatar Kot Behemot
    Dołączył
    20.07.2007
    Postów
    1 179
    Postawił
    0
    Piwa otrzymane
    2 791 (998)

    ENG Blue Ruin | 2013 | SUB PL | 720p | BRRip | XviD | AC3


    Blue Ruin (2013)
    b/d










    Ocena: 6,1/10
    Produkcja: USA,
    Gatunek: Thriller,
    Światowa Premiera: 2013-05-17
    Polska Premiera: 2014-08-22
    Reżyseria: Jeremy Saulnier
    Zdjęcia: Jeremy Saulnier
    Scenariusz: Jeremy Saulnier
    Muzyka: Brooke Blair , Will Blair
    Czas trwania: 1 godz. 32 min.
    Dystrybucja: Gutek Film
    O filmie: Blue Ruin (2013) - Filmweb







    Macon Blair - Dwight
    Devin Ratray - Ben Gaffney
    Amy Hargreaves - Sam
    Kevin Kolack - Teddy Cleland







    Dwight Evans (Macon Blair) mieszka na plaży w swoim starym samochodzie i jest samotnikiem z wyboru. Jego spokojne życie z dala od cywilizacji zostaje jednak brutalnie zakłócone. Pod wpływem szokującej informacji będzie musiał wrócić do domu swojego dzieciństwa, by chronić bliskich przed śmiertelnym zagrożeniem. Demony mrocznej przeszłości zmienią tego na co dzień delikatnego człowieka w mściciela, dokonującego aktu zemsty za zbrodnię, która rozbiła jego rodzinę...













    Kod:
    Format : AVI
    Format/Info: Audio Video Interleave
    Format profile : OpenDML
    File size: 2.62 GiB
    Duration : 1h 30mn
    Overall bit rate : 4 149 Kbps
    Writing application: VirtualDubMod 1.5.10.3 | www.virtualdub-fr.org || (build 2550/release)
    Writing library: VirtualDubMod build 2550/release
    
    
    Video
    ID : 0
    Format : MPEG-4 Visual
    Format profile : Advanced [email protected]
    Format settings, BVOP: 2
    Format settings, QPel: No
    Format settings, GMC : No warppoints
    Format settings, Matrix: Default (H.263)
    Codec ID : XVID
    Codec ID/Hint: XviD
    Duration : 1h 30mn
    Bit rate : 3 499 Kbps
    Width: 1 280 pixels
    Height : 536 pixels
    Display aspect ratio : 2.40:1
    Frame rate : 23.976 fps
    Color space: YUV
    Chroma subsampling : 4:2:0
    Bit depth: 8 bits
    Scan type: Progressive
    Compression mode : Lossy
    Bits/(Pixel*Frame) : 0.213
    Stream size: 2.21 GiB (84%)
    Writing library: XviD 1.2.1 (UTC 2008-12-04)
    
    
    Audio
    ID : 1
    Format : AC-3
    Format/Info: Audio Coding 3
    Mode extension : CM (complete main)
    Format settings, Endianness: Big
    Codec ID : 2000
    Duration : 1h 30mn
    Bit rate mode: Constant
    Bit rate : 640 Kbps
    Channel(s) : 6 channels
    Channel positions: Front: L C R, Side: L R, LFE
    Sampling rate: 48.0 KHz
    Bit depth: 16 bits
    Compression mode : Lossy
    Stream size: 414 MiB (15%)
    Alignment: Split accross interleaves
    Interleave, duration : 42 ms (1.00 video frame)
    Interleave, preload duration : 500 ms


    Nazwa pliku: Blue.Ruin.2013.SUB.PL.720p.BRRip.XviD.AC3.rar
    Rozmiar pliku: 2949,48 MB
    CRC32: 2B382478
    Liczba segmentów: 422
    Liczba mirrorów: 7
    Uploader: Kot Behemot
    Upload dla: p2m.net.pl







    Pokaż HC


     
    Wszystko w porządku
    Zakończenie sprawdzania segmentów: 2014-07-16 18:07:21
    bodziosol




    Ostatnio edytowane przez bodziosol ; 16.07.2014 o 18:11

  2. Kot Behemot upija się na koszt 3 osób:

    macko33 (16.07.2014), rafal23 (18.07.2014), W (14.07.2014)

Zakładki

Zakładki

Uprawnienia

  • Nie możesz zakładać nowych tematów
  • Nie możesz pisać wiadomości
  • Nie możesz dodawać załączników
  • Nie możesz edytować swoich postów
  •  
  • BB Code jest Włączony
  • EmotikonyWłączony
  • [IMG] kod jest Włączony
  • [VIDEO] code is Włączony
  • HTML jest Wyłączony
  • Trackbacki : Wyłączony
  • Pingbacki : Wyłączony
  • Refbacki : Włączony