Pokaż wyniki od 1 do 1 z 1
  1. #1
    Professional Uploader Avatar Léon
    Dołączył
    16.12.2013
    Skąd
    Paryż
    Postów
    5 411
    Postawił
    33
    Piwa otrzymane
    16 403 (4 968)

    ENG Niezgodna | 2014 [PL.SUB][720p][BluRay]


    Niezgodna (2014)
    Divergent







    Ocena: 7,6/10
    Produkcja: USA,
    Gatunek: Akcja, Sci-Fi,
    Światowa Premiera: 2014-03-18
    Polska Premiera: 2014-04-04
    Reżyseria: Neil Burger
    Zdjęcia: Alwin H. Kuchler
    Scenariusz: Evan DaughertyVanessa Taylor
    Muzyka: Junkie XL
    Czas trwania: 2 godz. 23 min.
    Dystrybucja: Monolith Films
    O filmie: Niezgodna (2014) - Filmweb





    Shailene Woodley - Beatrice "Tris" Prior
    Theo James - Cztery
    Ashley Judd - Natalie Prior
    Jai Courtney - Eric





    W metropolii wzniesionej na ruinach Chicago idealne społeczeństwo budowane jest na zasadzie selekcji. Każdy nastolatek musi przejść test predyspozycji określający jego przynależność do jednej z pięciu grup. Jeśli nie posiadasz żadnej z pięciu kluczowych cech, będziesz żyć na marginesie. Jeśli zaś masz więcej niż jedną z nich, jesteś NIEZGODNYM i czeka cię całkowita eliminacja. Chyba że – tak jak Beatrice – uda ci się uciec i znaleźć drogę do podziemnego świata ludzi, którzy[span class="fullText hide"]zdecydowali się rzucić wyzwanie bezdusznemu systemowi. Beatrice musi znaleźć w sobie dość odwagi, by zaryzykować wszystko w walce o to, co kocha najbardziej.









    Kod:
    Format : Matroska
    Format version : Version 4 / Version 2
    File size: 6.00 GiB
    Duration : 2h 19mn
    Overall bit rate : 6 153 Kbps
    Encoded date : UTC 2014-07-23 06:45:12
    Writing application: mkvmerge v6.8.0 ('Theme for Great Cities') 64bit built on Mar2 2014 21:34:26
    Writing library: libebml v1.3.0 + libmatroska v1.4.1
    
    Video
    ID : 1
    Format : AVC
    Format/Info: Advanced Video Codec
    Format profile : [email protected]
    Format settings, CABAC : Yes
    Format settings, ReFrames: 10 frames
    Codec ID : V_MPEG4/ISO/AVC
    Duration : 2h 19mn
    Bit rate : 4 645 Kbps
    Width: 1 280 pixels
    Height : 534 pixels
    Display aspect ratio : 2.40:1
    Frame rate mode: Constant
    Frame rate : 23.976 fps
    Color space: YUV
    Chroma subsampling : 4:2:0
    Bit depth: 8 bits
    Scan type: Progressive
    Bits/(Pixel*Frame) : 0.283
    Stream size: 4.41 GiB (73%)
    Writing library: x264
    Language : English
    Default: Yes
    Forced : No
    
    Audio
    ID : 2
    Format : DTS
    Format/Info: Digital Theater Systems
    Mode : 16
    Format settings, Endianness: Big
    Codec ID : A_DTS
    Duration : 2h 19mn
    Bit rate mode: Constant
    Bit rate : 1 509 Kbps
    Channel(s) : 6 channels
    Channel positions: Front: L C R, Side: L R, LFE
    Sampling rate: 48.0 KHz
    Bit depth: 24 bits
    Compression mode : Lossy
    Stream size: 1.47 GiB (25%)
    Title: dts-core 1509k eng
    Language : English
    Default: Yes
    Forced : No

    Part 1


    Nazwa pliku: Divergent.2014.SUB.PL.BluRay.720p.DTS.x264.part1.rar
    Rozmiar pliku: 3850,00 MB
    CRC32: 38CE92A6
    Liczba segmentów: 453
    Liczba mirrorów: 8
    Uploader: Leon Zawodowiec
    Upload dla: p2m.net.pl


    Part 2


    Nazwa pliku: Divergent.2014.SUB.PL.BluRay.720p.DTS.x264.part2.rar
    Rozmiar pliku: 2701,77 MB
    CRC32: C29C1B67
    Liczba segmentów: 321
    Liczba mirrorów: 8
    Uploader: Leon Zawodowiec
    Upload dla: p2m.net.pl




    Part 1


    Pokaż HC


     
    Wszystko w porządku
    Zakończenie sprawdzania segmentów: 2014-07-26 23:43:05


    Part 2


    Pokaż HC


     
    Wszystko w porządku
    Zakończenie sprawdzania segmentów: 2014-07-26 23:42:18
    bodziosol




    Ostatnio edytowane przez bodziosol ; 26.07.2014 o 23:55




  2. Léon upija się na koszt 8 osób:

    Andzia88 (27.07.2014), dybomayday (6.08.2014), dzombosik (19.08.2014), macko33 (25.07.2014), rafaelo1979 (26.07.2014), ssevveryn (2.08.2014), W (25.07.2014), zanik (3.08.2014)

Zakładki

Zakładki

Uprawnienia

  • Nie możesz zakładać nowych tematów
  • Nie możesz pisać wiadomości
  • Nie możesz dodawać załączników
  • Nie możesz edytować swoich postów
  •  
  • BB Code jest Włączony
  • EmotikonyWłączony
  • [IMG] kod jest Włączony
  • [VIDEO] code is Włączony
  • HTML jest Wyłączony
  • Trackbacki : Wyłączony
  • Pingbacki : Wyłączony
  • Refbacki : Włączony