Pokaż wyniki od 1 do 1 z 1
  1. #1
    Professional Uploader Avatar Léon
    Dołączył
    16.12.2013
    Skąd
    Paryż
    Postów
    5 411
    Postawił
    33
    Piwa otrzymane
    16 405 (4 968)

    OK Teoria wszystkiego | 2013 [PL.SUB][1080p][BluRay]


    Teoria wszystkiego (2013)
    The Zero Theorem







    Ocena: 6,4/10
    Produkcja: USA, Wielka Brytania, Rumunia,
    Gatunek: Dramat, Fantasy,
    Światowa Premiera: 2013-09-02
    Polska Premiera: 2014-05-23
    Reżyseria: Terry Gilliam
    Zdjęcia: Nicola Pecorini
    Scenariusz: Pat Rushin
    Muzyka: George Fenton
    Czas trwania: 1 godz. 47 min.
    Dystrybucja: Gutek Film
    O filmie: Teoria wszystkiego (2013) - Filmweb





    Christoph Waltz - Qohen Leth
    David Thewlis - Joby
    Mélanie Thierry - Bainsley
    Lucas Hedges - Bob





    W niedalekiej przyszłości ludzie zostają pozbawieni resztek prywatności, a odpowiedzią na każde - nawet najskrytsze ich pragnienia - są wszechobecne wirtualne usługi, którymi sterują wielkie korporacje. Ukrywający się przed światem ekscentryczny geniusz Qouen Leth (Waltz) otrzymuje od prezesa zarządu najpotężniejszego koncernu świata (Damon) tajną misję. Korzystając z wszelkich dostępnych ludziom środków ma rozszyfrować sens istnienia wszechświata. Jednak zanim rozwiąże[span class="fullText hide"]największą ze wszystkich  zagadek, musi zmierzyć się ze swoimi paranojami i obsesjami, szaloną psychoanalityczką (Swinton), namolnym szefem (Thewlis), tajemniczą nieznajomą, która chce z nim uprawiać wirtualny seks (Thierry)  i czarną dziurą, która nieubłaganie zasysa cały wszechświat...









    Kod:
    Format : Matroska
    Format version : Version 4 / Version 2
    File size: 8.71 GiB
    Duration : 1h 46mn
    Overall bit rate : 11.7 Mbps
    Encoded date : UTC 2014-07-23 01:13:22
    Writing application: mkvmerge v6.8.0 ('Theme for Great Cities') 64bit built on Mar2 2014 21:34:26
    Writing library: libebml v1.3.0 + libmatroska v1.4.1
    
    Video
    ID : 1
    Format : AVC
    Format/Info: Advanced Video Codec
    Format profile : [email protected]
    Format settings, CABAC : Yes
    Format settings, ReFrames: 4 frames
    Codec ID : V_MPEG4/ISO/AVC
    Duration : 1h 46mn
    Bit rate : 10.2 Mbps
    Width: 1 816 pixels
    Height : 1 036 pixels
    Display aspect ratio : 16:9
    Frame rate mode: Constant
    Frame rate : 23.976 fps
    Color space: YUV
    Chroma subsampling : 4:2:0
    Bit depth: 8 bits
    Scan type: Progressive
    Bits/(Pixel*Frame) : 0.226
    Stream size: 7.41 GiB (85%)
    Writing library: x264 
    Language : English
    Default: Yes
    Forced : No
    
    Audio
    ID : 2
    Format : DTS
    Format/Info: Digital Theater Systems
    Mode : 16
    Format settings, Endianness: Big
    Codec ID : A_DTS
    Duration : 1h 46mn
    Bit rate mode: Constant
    Bit rate : 1 509 Kbps
    Channel(s) : 6 channels
    Channel positions: Front: L C R, Side: L R, LFE
    Sampling rate: 48.0 KHz
    Bit depth: 24 bits
    Compression mode : Lossy
    Stream size: 1.12 GiB (13%)
    Title: dts-core 1509k eng
    Language : English
    Default: Yes
    Forced : No

    Part 1


    Nazwa pliku: The.Zero.Theorem.2013.SUB.PL.BluRay.1080p.DTS.x264.part1.rar
    Rozmiar pliku: 3950,00 MB
    CRC32: 91A337F9
    Liczba segmentów: 468
    Liczba mirrorów: 7
    Uploader: Leon
    Upload dla: p2m.net.pl


    Part 2


    Nazwa pliku: The.Zero.Theorem.2013.SUB.PL.BluRay.1080p.DTS.x264.part2.rar
    Rozmiar pliku: 3950,00 MB
    CRC32: 65A992C9
    Liczba segmentów: 466
    Liczba mirrorów: 7
    Uploader: Leon
    Upload dla: p2m.net.pl


    Part 3


    Nazwa pliku: The.Zero.Theorem.2013.SUB.PL.BluRay.1080p.DTS.x264.part3.rar
    Rozmiar pliku: 1671,47 MB
    CRC32: 95733271
    Liczba segmentów: 197
    Liczba mirrorów: 7
    Uploader: Leon
    Upload dla: p2m.net.pl




    Part 1


    Pokaż HC

     
    Wszystko w porządku
    Zakończenie sprawdzania segmentów: 2014-08-30 17:32:18

    Part 2


    Pokaż HC

     
    Wszystko w porządku
    Zakończenie sprawdzania segmentów: 2014-08-30 17:36:17

    Part 3


    Pokaż HC

     
    Niedziałające mirrory:
    7 - oboz.ua
    Zakończenie sprawdzania segmentów: 2014-08-30 17:46:13


    Ostatnio edytowane przez xaveq ; 30.08.2014 o 18:47




  2. Léon upija się na koszt 5 osób:

    cezar116  (4.08.2014), macko33 (26.07.2014), marcco (9.09.2014), staszek_s (25.07.2014), W (25.07.2014)

Zakładki

Zakładki

Uprawnienia

  • Nie możesz zakładać nowych tematów
  • Nie możesz pisać wiadomości
  • Nie możesz dodawać załączników
  • Nie możesz edytować swoich postów
  •  
  • BB Code jest Włączony
  • EmotikonyWłączony
  • [IMG] kod jest Włączony
  • [VIDEO] code is Włączony
  • HTML jest Wyłączony
  • Trackbacki : Wyłączony
  • Pingbacki : Wyłączony
  • Refbacki : Włączony