Pokaż wyniki od 1 do 5 z 5
  1. #1
    Professional Uploader Avatar Léon
    Dołączył
    16.12.2013
    Skąd
    Paryż
    Postów
    5 411
    Postawił
    33
    Piwa otrzymane
    16 405 (4 968)

    OK Niesamowity Spider-Man 2 | 2014 [1080p][BluRay]


    Niesamowity Spider-Man 2 (2014)
    The Amazing Spider-Man 2







    Ocena: 7,2/10
    Produkcja: USA,
    Gatunek: Akcja, Sci-Fi,
    Światowa Premiera: 2014-04-10
    Polska Premiera: 2014-04-25
    Reżyseria: Marc Webb
    Zdjęcia: Daniel Mindel
    Scenariusz: Alex KurtzmanRoberto OrciJeff Pinkner
    Muzyka: Hans Zimmer , Pharrell Williams
    Czas trwania: 2 godz. 22 min.
    Dystrybucja: United International Pictures Sp z o.o.
    O filmie: Niesamowity Spider-Man 2 (2014) - Filmweb





    Andrew Garfield - Spider-Man / Peter Parker
    Emma Stone - Gwen Stacy
    Jamie Foxx - Elektro / Max Dillon
    Dane DeHaan - Zielony Goblin / Harry Osborn





    Zbliża się zakończenie szkoły, ale pomimo tego Peter Parker (Andrew Garfield) ma ważniejsze sprawy na głowie. Jego życie utknęło pomiędzy ściganiem złych facetów jako Spider-Man, a spotkaniami z ukochaną Gwen Stacy (Emma Stone). Peter nie zapomniał o obietnicy złożonej ojcu dziewczyny, jednak nie potrafi jej dotrzymać. Wszystko zmienia się, gdy w mieście pojawia się nowy złoczyńca, Electro (Jamie Foxx)...









    Kod:
    Format : Matroska
    Format version : Version 4 / Version 2
    File size: 10.9 GiB
    Duration : 2h 21mn
    Overall bit rate : 11.1 Mbps
    Encoded date : UTC 2014-08-02 00:10:08
    Writing application: mkvmerge v7.1.0 ('Good Love') 64bit built on Jul 27 2014 13:06:55
    Writing library: libebml v1.3.0 + libmatroska v1.4.1
    DURATION : 02:19:53.259000000
    NUMBER_OF_FRAMES : 2143
    NUMBER_OF_BYTES: 64797
    _STATISTICS_WRITING_APP: mkvmerge v7.1.0 ('Good Love') 64bit built on Jul 27 2014 13:06:55
    _STATISTICS_WRITING_DATE_UTC : 2014-08-02 00:10:08
    _STATISTICS_TAGS : BPS DURATION NUMBER_OF_FRAMES NUMBER_OF_BYTES
    
    Video
    ID : 1
    Format : AVC
    Format/Info: Advanced Video Codec
    Format profile : [email protected]
    Format settings, CABAC : Yes
    Format settings, ReFrames: 5 frames
    Codec ID : V_MPEG4/ISO/AVC
    Duration : 2h 21mn
    Bit rate : 9 546 Kbps
    Width: 1 920 pixels
    Height : 800 pixels
    Display aspect ratio : 2.40:1
    Frame rate mode: Constant
    Frame rate : 23.976 fps
    Color space: YUV
    Chroma subsampling : 4:2:0
    Bit depth: 8 bits
    Scan type: Progressive
    Bits/(Pixel*Frame) : 0.259
    Stream size: 9.22 GiB (84%)
    Writing library: x264 
    Language : English
    Default: Yes
    Forced : No
    DURATION : 02:21:34.737000000
    NUMBER_OF_FRAMES : 203670
    NUMBER_OF_BYTES: 10130312622
    _STATISTICS_WRITING_APP: mkvmerge v7.1.0 ('Good Love') 64bit built on Jul 27 2014 13:06:55
    _STATISTICS_WRITING_DATE_UTC : 2014-08-02 00:10:08
    _STATISTICS_TAGS : BPS DURATION NUMBER_OF_FRAMES NUMBER_OF_BYTES
    
    Audio
    ID : 2
    Format : DTS
    Format/Info: Digital Theater Systems
    Mode : 16
    Format settings, Endianness: Big
    Codec ID : A_DTS
    Duration : 2h 21mn
    Bit rate mode: Constant
    Bit rate : 1 509 Kbps
    Channel(s) : 6 channels
    Channel positions: Front: L C R, Side: L R, LFE
    Sampling rate: 48.0 KHz
    Bit depth: 24 bits
    Compression mode : Lossy
    Stream size: 1.49 GiB (14%)
    Language : English
    Default: Yes
    Forced : No
    
    Text #1
    ID : 3
    Format : UTF-8
    Codec ID : S_TEXT/UTF8
    Codec ID/Info: UTF-8 Plain Text
    Title: English
    Language : English
    Default: No
    Forced : No
    
    Text #2
    ID : 4
    Format : UTF-8
    Codec ID : S_TEXT/UTF8
    Codec ID/Info: UTF-8 Plain Text
    Title: English SDH
    Language : English
    Default: No
    Forced : No

    Part 1


    Nazwa pliku: The.Amazing.Spider-Man.2.2014.1080p.BluRay.x264.part1.rar
    Rozmiar pliku: 3850,00 MB
    CRC32: 4D9186C1
    Liczba segmentów: 450
    Liczba mirrorów: 7
    Uploader: Leon Zawodowiec
    Upload dla: p2m.net.pl


    Part 2


    Nazwa pliku: The.Amazing.Spider-Man.2.2014.1080p.BluRay.x264.part2.rar
    Rozmiar pliku: 3850,00 MB
    CRC32: 58ABFCCC
    Liczba segmentów: 452
    Liczba mirrorów: 6
    Uploader: Leon Zawodowiec
    Upload dla: p2m.net.pl


    Part 3


    Nazwa pliku: The.Amazing.Spider-Man.2.2014.1080p.BluRay.x264.part3.rar
    Rozmiar pliku: 3850,00 MB
    CRC32: 89D4AA87
    Liczba segmentów: 449
    Liczba mirrorów: 7
    Uploader: Leon Zawodowiec
    Upload dla: p2m.net.pl


    Part 4


    Nazwa pliku: The.Amazing.Spider-Man.2.2014.1080p.BluRay.x264.part4.rar
    Rozmiar pliku: 439,25 MB
    CRC32: 89332C37
    Liczba segmentów: 53
    Liczba mirrorów: 6
    Uploader: Leon Zawodowiec
    Upload dla: p2m.net.pl




    Part 1


    Pokaż HC

     
    Wszystko w porządku
    Zakończenie sprawdzania segmentów: 2014-08-15 16:25:46

    Part 2


    Pokaż HC

     
    Wszystko w porządku
    Zakończenie sprawdzania segmentów: 2014-08-15 16:28:55

    Part 3


    Pokaż HC

     
    Wszystko w porządku
    Zakończenie sprawdzania segmentów: 2014-08-15 16:32:01

    Part 4


    Pokaż HC

     
    Wszystko w porządku
    Zakończenie sprawdzania segmentów: 2014-08-15 16:33:44

    Gandalf



    Ostatnio edytowane przez Gandalf ; 15.08.2014 o 17:58




  2. Léon upija się na koszt:

    W (3.08.2014)

  3. #2
    Donator
    Dołączył
    1.08.2007
    Postów
    6
    Postawił
    0
    Piwa otrzymane
    5 (5)

    Domyślnie

    Hej, wrzuciłbyś part4? Bo unrar twierdzi, że brakuje mu paczek... :-/

  4. xeonic upija się na koszt:

    W (4.08.2014)

  5. #3
    Professional Uploader Avatar Léon
    Dołączył
    16.12.2013
    Skąd
    Paryż
    Postów
    5 411
    Postawił
    33
    Piwa otrzymane
    16 405 (4 968)

    Domyślnie

    zaraz dorzuce.




  6. Léon upija się na koszt:

    W (4.08.2014)

  7. #4
    Donator
    Dołączył
    1.08.2007
    Postów
    6
    Postawił
    0
    Piwa otrzymane
    5 (5)

    Domyślnie

    Pobrałem part 4. Na gazeta.pl było sporo z błędami CRC, ale nawet jak pobrałem cały z pominięciem tego mirrora (tym razem bez błędów) to dalej wygląda na ucięte archiwum... :-(

  8. xeonic upija się na koszt:

    W (5.08.2014)

  9. #5
    Professional Uploader Avatar Léon
    Dołączył
    16.12.2013
    Skąd
    Paryż
    Postów
    5 411
    Postawił
    33
    Piwa otrzymane
    16 405 (4 968)

    Domyślnie

    Cytat Napisał xeonic Zobacz post
    Pobrałem part 4. Na gazeta.pl było sporo z błędami CRC, ale nawet jak pobrałem cały z pominięciem tego mirrora (tym razem bez błędów) to dalej wygląda na ucięte archiwum... :-(

    Sprawdź archiwa, dwukrotnie lpm. W razie błędów któregoś archiwum, pobierz je jeszcze raz, wyłącz mirror gazet.




  10. Léon upija się na koszt:

    W (5.08.2014)

Zakładki

Zakładki

Uprawnienia

  • Nie możesz zakładać nowych tematów
  • Nie możesz pisać wiadomości
  • Nie możesz dodawać załączników
  • Nie możesz edytować swoich postów
  •  
  • BB Code jest Włączony
  • EmotikonyWłączony
  • [IMG] kod jest Włączony
  • [VIDEO] code is Włączony
  • HTML jest Wyłączony
  • Trackbacki : Wyłączony
  • Pingbacki : Wyłączony
  • Refbacki : Włączony