Pokaż wyniki od 1 do 1 z 1
  1. #1
    Professional Uploader Avatar Léon
    Dołączył
    16.12.2013
    Skąd
    Paryż
    Postów
    5 411
    Postawił
    33
    Piwa otrzymane
    16 403 (4 968)

    OK Jarhead 2: Field of Fire | 2014 [720p][BluRay]


    Jarhead 2: Field of Fire







    Produkcja: USA
    Gatunek: Akcja
    Czas trwania: 102 min.
    Premiera: 19.08.2014 - Świat
    Reżyseria: Don Michael Paul
    Scenariusz: Berkeley Anderson, Ellis Black







    Kapral Chris Merrimette dowodzi jednostką, która ma przejąć teren kontrolowany przez Talibów. W trakcie misji nie wszystko idzie zgodnie z planem. (release24.pl)









    Kod:
    Format : Matroska
    Format version : Version 4 / Version 2
    File size: 4.36 GiB
    Duration : 1h 42mn
    Overall bit rate : 6 085 Kbps
    Encoded date : UTC 2014-08-06 06:44:49
    Writing application: mkvmerge v6.8.0 ('Theme for Great Cities') 64bit built on Mar2 2014 21:34:26
    Writing library: libebml v1.3.0 + libmatroska v1.4.1
    
    Video
    ID : 1
    Format : AVC
    Format/Info: Advanced Video Codec
    Format profile : [email protected]
    Format settings, CABAC : Yes
    Format settings, ReFrames: 11 frames
    Codec ID : V_MPEG4/ISO/AVC
    Duration : 1h 42mn
    Bit rate : 4 578 Kbps
    Width: 1 280 pixels
    Height : 534 pixels
    Display aspect ratio : 2.40:1
    Frame rate mode: Constant
    Frame rate : 23.976 fps
    Color space: YUV
    Chroma subsampling : 4:2:0
    Bit depth: 8 bits
    Scan type: Progressive
    Bits/(Pixel*Frame) : 0.279
    Stream size: 3.19 GiB (73%)
    Writing library: x264 
    Language : English
    Default: Yes
    Forced : No
    
    Audio
    ID : 2
    Format : DTS
    Format/Info: Digital Theater Systems
    Mode : 16
    Format settings, Endianness: Big
    Codec ID : A_DTS
    Duration : 1h 42mn
    Bit rate mode: Constant
    Bit rate : 1 509 Kbps
    Channel(s) : 6 channels
    Channel positions: Front: L C R, Side: L R, LFE
    Sampling rate: 48.0 KHz
    Bit depth: 24 bits
    Compression mode : Lossy
    Stream size: 1.08 GiB (25%)
    Title: English DTS 5.1 1509Kbps
    Language : English
    Default: Yes
    Forced : No

    Part 1


    Nazwa pliku: Jarhead.2.Field.of.Fire.2014.BluRay.720p.DTS.x264.part1.rar
    Rozmiar pliku: 3850,00 MB
    CRC32: 07C6BB94
    Liczba segmentów: 458
    Liczba mirrorów: 7
    Uploader: Leon Zawodowiec
    Upload dla: p2m.net.pl


    Part 2


    Nazwa pliku: Jarhead.2.Field.of.Fire.2014.BluRay.720p.DTS.x264.part2.rar
    Rozmiar pliku: 885,29 MB
    CRC32: 2965D78D
    Liczba segmentów: 104
    Liczba mirrorów: 6
    Uploader: Leon Zawodowiec
    Upload dla: p2m.net.pl




    Part 1


    Pokaż HC


     
    Wszystko w porządku
    Zakończenie sprawdzania segmentów: 2014-08-15 09:09:43


    Part 2


    Pokaż HC


     
    Wszystko w porządku
    Zakończenie sprawdzania segmentów: 2014-08-15 09:07:45
    bodziosol




    Ostatnio edytowane przez bodziosol ; 15.08.2014 o 09:10




  2. Léon upija się na koszt 6 osób:

    decoya (21.09.2014), macko33 (9.08.2014), Pieseł (3.09.2014), predator-2 (27.08.2014), suri (9.08.2014), W (9.08.2014)

Zakładki

Zakładki

Uprawnienia

  • Nie możesz zakładać nowych tematów
  • Nie możesz pisać wiadomości
  • Nie możesz dodawać załączników
  • Nie możesz edytować swoich postów
  •  
  • BB Code jest Włączony
  • EmotikonyWłączony
  • [IMG] kod jest Włączony
  • [VIDEO] code is Włączony
  • HTML jest Wyłączony
  • Trackbacki : Wyłączony
  • Pingbacki : Wyłączony
  • Refbacki : Włączony