Pokaż wyniki od 1 do 1 z 1
  1. #1
    Professional Uploader Avatar Léon
    Dołączył
    16.12.2013
    Skąd
    Paryż
    Postów
    5 411
    Postawił
    33
    Piwa otrzymane
    16 405 (4 968)

    OK Uśpieni | 2014 [PL.SUB][720p][BRRip]


    Uśpieni (2014)
    The Quiet Ones







    Ocena: 5,1/10
    Produkcja: USA,
    Gatunek: Horror,
    Światowa Premiera: 2014-04-01
    Polska Premiera: 2014-05-16
    Reżyseria: John Pogue
    Zdjęcia: Mátyás Erdély
    Scenariusz: John PogueTom de VilleOren MovermanCraig Rosenberg
    Muzyka: Lucas Vidal
    Czas trwania: 1 godz. 38 min.
    Dystrybucja: Kino Świat
    O filmie: Uśpieni (2014) - Filmweb





    Jared Harris - Profesor Joseph Coupland
    Sam Claflin - Brian McNeil
    Erin Richards - Krissi Dalton
    Rory Fleck-Byrne - Harry Abrams





    Grupa studentów (wśród nich Sam Claflin, gwiazda "Igrzysk śmierci: W pierścieniu ognia") bierze udział w przerażającym eksperymencie. Wkrótce przekonują się, że nie wolno igrać ze zjawiskami paranormalnymi. Ta historia wydarzyła się naprawdę. Charyzmatyczny profesor uniwersytecki Coupland (Jared Harris), którego metody pracy wzbudzają wiele kontrowersji, zachęca swoich studentów do udziału w niebezpiecznym eksperymencie. Ich wspólne działanie ma doprowadzić do stworzenia[span class="fullText hide"]poltergeista, co według teorii Couplanda jest możliwe, gdy skumuluje się odpowiednią ilość negatywnej ludzkiej energii.









    Kod:
    Format : AVI
    Format/Info: Audio Video Interleave
    Format profile : OpenDML
    File size: 2.88 GiB
    Duration : 1h 38mn
    Overall bit rate : 4 199 Kbps
    Writing application: VirtualDubMod 1.5.10.3 | www.virtualdub-fr.org || (build 2550/release)
    Writing library: VirtualDubMod build 2550/release
    
    Video
    ID : 0
    Format : MPEG-4 Visual
    Format profile : Advanced [email protected]
    Format settings, BVOP: 2
    Format settings, QPel: No
    Format settings, GMC : No warppoints
    Format settings, Matrix: Custom
    Codec ID : XVID
    Codec ID/Hint: XviD
    Duration : 1h 38mn
    Bit rate : 3 548 Kbps
    Width: 1 280 pixels
    Height : 720 pixels
    Display aspect ratio : 16:9
    Frame rate : 23.976 fps
    Color space: YUV
    Chroma subsampling : 4:2:0
    Bit depth: 8 bits
    Scan type: Progressive
    Compression mode : Lossy
    Bits/(Pixel*Frame) : 0.161
    Stream size: 2.43 GiB (85%)
    Writing library: XviD 1.2.1 (UTC 2008-12-04)
    
    Audio
    ID : 1
    Format : AC-3
    Format/Info: Audio Coding 3
    Mode extension : CM (complete main)
    Format settings, Endianness: Big
    Codec ID : 2000
    Duration : 1h 38mn
    Bit rate mode: Constant
    Bit rate : 640 Kbps
    Channel(s) : 6 channels
    Channel positions: Front: L C R, Side: L R, LFE
    Sampling rate: 48.0 KHz
    Bit depth: 16 bits
    Compression mode : Lossy
    Stream size: 450 MiB (15%)
    Alignment: Split accross interleaves
    Interleave, duration : 42 ms (1.00 video frame)
    Interleave, preload duration : 500 ms


    Nazwa pliku: The.Quiet.Ones.2014.SUB.PL.720p.BRRip.XviD.AC3.rar
    Rozmiar pliku: 3195,55 MB
    CRC32: 5C48013B
    Liczba segmentów: 377
    Liczba mirrorów: 7
    Uploader: Leon
    Upload dla: p2m.net.pl





    Pokaż HC


     
    Wszystko w porządku
    Zakończenie sprawdzania segmentów: 2014-08-15 08:52:11
    bodziosol




    Ostatnio edytowane przez bodziosol ; 15.08.2014 o 09:53




  2. Léon upija się na koszt 6 osób:

    AntiL (10.08.2014), cezar116  (17.08.2014), macko33 (10.08.2014), Mamercus  (10.08.2014), raf194 (14.08.2014), W (10.08.2014)

Zakładki

Zakładki

Uprawnienia

  • Nie możesz zakładać nowych tematów
  • Nie możesz pisać wiadomości
  • Nie możesz dodawać załączników
  • Nie możesz edytować swoich postów
  •  
  • BB Code jest Włączony
  • EmotikonyWłączony
  • [IMG] kod jest Włączony
  • [VIDEO] code is Włączony
  • HTML jest Wyłączony
  • Trackbacki : Wyłączony
  • Pingbacki : Wyłączony
  • Refbacki : Włączony