Pokaż wyniki od 1 do 1 z 1
  1. #1
    Professional Uploader Avatar Léon
    Dołączył
    16.12.2013
    Skąd
    Paryż
    Postów
    5 411
    Postawił
    33
    Piwa otrzymane
    16 405 (4 968)

    OK Mall | 2014 [SUB.PL][720p][BRRip]


    Mall (2014)







    Produkcja: USA
    Gatunek: Dramat
    Czas trwania: 88 min.
    Premiera: 18.06.2014 - Świat
    Reżyseria: Joseph Hahn
    Scenariusz: Vincent D'Onofrio, Sam Bisbee, Joe Vinciguerra







    Ścieżki piątki nieznajomych krzyżują się w centrum handlowym, do którego przybył szaleniec z torbą wypełnioną bronią.









    Kod:
    Format : AVI
    Format/Info: Audio Video Interleave
    Format profile : OpenDML
    File size: 2.56 GiB
    Duration : 1h 28mn
    Overall bit rate : 4 147 Kbps
    Writing application: VirtualDubMod 1.5.10.3 | www.virtualdub-fr.org || (build 2550/release)
    Writing library: VirtualDubMod build 2550/release
    
    Video
    ID : 0
    Format : MPEG-4 Visual
    Format profile : Advanced [email protected]
    Format settings, BVOP: 2
    Format settings, QPel: No
    Format settings, GMC : No warppoints
    Format settings, Matrix: Default (H.263)
    Codec ID : XVID
    Codec ID/Hint: XviD
    Duration : 1h 28mn
    Bit rate : 3 496 Kbps
    Width: 1 280 pixels
    Height : 534 pixels
    Display aspect ratio : 2.40:1
    Frame rate : 23.976 fps
    Color space: YUV
    Chroma subsampling : 4:2:0
    Bit depth: 8 bits
    Scan type: Progressive
    Compression mode : Lossy
    Bits/(Pixel*Frame) : 0.213
    Stream size: 2.16 GiB (84%)
    Writing library: XviD 1.2.1 (UTC 2008-12-04)
    
    Audio
    ID : 1
    Format : AC-3
    Format/Info: Audio Coding 3
    Mode extension : CM (complete main)
    Format settings, Endianness: Big
    Codec ID : 2000
    Duration : 1h 28mn
    Bit rate mode: Constant
    Bit rate : 640 Kbps
    Channel(s) : 6 channels
    Channel positions: Front: L C R, Side: L R, LFE
    Sampling rate: 48.0 KHz
    Bit depth: 16 bits
    Compression mode : Lossy
    Stream size: 404 MiB (15%)
    Alignment: Split accross interleaves
    Interleave, duration : 42 ms (1.00 video frame)
    Interleave, preload duration : 500 ms


    Nazwa pliku: Mall.2014.SUB.PL.720p.BRRip.XviD.AC3.rar
    Rozmiar pliku: 2860,02 MB
    CRC32: 8399D593
    Liczba segmentów: 336
    Liczba mirrorów: 8
    Uploader: Leon Zawodowiec
    Upload dla: p2m.net.pl





    Pokaż HC

     
    Wszystko w porządku
    Zakończenie sprawdzania segmentów: 2014-08-18 04:59:52


    Ostatnio edytowane przez Markus* ; 18.08.2014 o 06:01




  2. Léon upija się na koszt 3 osób:

    rafal23 (28.08.2014), W (17.08.2014), zanik (21.08.2014)

Zakładki

Zakładki

Uprawnienia

  • Nie możesz zakładać nowych tematów
  • Nie możesz pisać wiadomości
  • Nie możesz dodawać załączników
  • Nie możesz edytować swoich postów
  •  
  • BB Code jest Włączony
  • EmotikonyWłączony
  • [IMG] kod jest Włączony
  • [VIDEO] code is Włączony
  • HTML jest Wyłączony
  • Trackbacki : Wyłączony
  • Pingbacki : Wyłączony
  • Refbacki : Włączony