Pokaż wyniki od 1 do 1 z 1
  1. #1
    Professional Uploader Avatar Léon
    Dołączył
    16.12.2013
    Skąd
    Paryż
    Postów
    5 411
    Postawił
    33
    Piwa otrzymane
    16 403 (4 968)

    OK Brick Mansions. Najlepszy z najlepszych | 2014 [SUB.PL][720p][BRRip]


    Brick Mansions. Najlepszy z najlepszych (2014)
    Brick Mansions







    Ocena: 6,0/10
    Produkcja: Francja, Kanada,
    Gatunek: Dramat, Kryminał, Akcja,
    Światowa Premiera: 2014-04-23
    Polska Premiera: 2014-04-25
    Reżyseria: Camille Delamarre
    Zdjęcia: Christophe Collette
    Scenariusz: Luc BessonBibi Naceri
    Muzyka: Marc Bell , Trevor Morris
    Czas trwania: 1 godz. 30 min.
    Dystrybucja: Kino Świat
    O filmie: Brick Mansions. Najlepszy z najlepszych (2014) - Filmweb





    Paul Walker - Damien
    David Belle - Lino
    RZA - Tremaine
    Gouchy Boy - K2





    Niedaleka przyszłość. Tajny agent policji Damien (Paul Walker) ma zaledwie 24 godziny, by odszukać skradziony pocisk z głowicą nuklearną i powstrzymać katastrofę. Wszelkie tropy wiodą do bezwzględnego handlarza narkotyków, rezydującego w odciętym od świata getcie, zwanym Brick Mansions. W niebezpiecznej misji, na terenie niepodzielnie rządzonym przez gangi, Damien zyskuje nieoczekiwanego sprzymierzeńca – twardziela o imieniu Lino (David Belle), mistrza walk ulicznych i parkouru, który zna getto jak własną kieszeń i ma prywatne porachunki z bossem przestępczego podziemia.









    Kod:
    Format : AVI
    Format/Info: Audio Video Interleave
    Format profile : OpenDML
    File size: 2.61 GiB
    Duration : 1h 30mn
    Overall bit rate : 4 150 Kbps
    Writing application: VirtualDubMod 1.5.10.3 | www.virtualdub-fr.org || (build 2550/release)
    Writing library: VirtualDubMod build 2550/release
    
    Video
    ID : 0
    Format : MPEG-4 Visual
    Format profile : Advanced [email protected]
    Format settings, BVOP: 1
    Format settings, QPel: No
    Format settings, GMC : No warppoints
    Format settings, Matrix: Default (H.263)
    Codec ID : XVID
    Codec ID/Hint: XviD
    Duration : 1h 30mn
    Bit rate : 3 499 Kbps
    Width: 1 280 pixels
    Height : 534 pixels
    Display aspect ratio : 2.40:1
    Frame rate : 24.000 fps
    Color space: YUV
    Chroma subsampling : 4:2:0
    Bit depth: 8 bits
    Scan type: Progressive
    Compression mode : Lossy
    Bits/(Pixel*Frame) : 0.213
    Stream size: 2.20 GiB (84%)
    Writing library: XviD 1.2.1 (UTC 2008-12-04)
    
    Audio
    ID : 1
    Format : AC-3
    Format/Info: Audio Coding 3
    Mode extension : CM (complete main)
    Format settings, Endianness: Big
    Codec ID : 2000
    Duration : 1h 30mn
    Bit rate mode: Constant
    Bit rate : 640 Kbps
    Channel(s) : 6 channels
    Channel positions: Front: L C R, Side: L R, LFE
    Sampling rate: 48.0 KHz
    Bit depth: 16 bits
    Compression mode : Lossy
    Stream size: 413 MiB (15%)
    Alignment: Split accross interleaves
    Interleave, duration : 42 ms (1.00 video frame)
    Interleave, preload duration : 500 ms


    Nazwa pliku: Brick.Mansions.2014.SUB.PL.720p.BRRip.XviD.AC3.rar
    Rozmiar pliku: 2935,69 MB
    CRC32: 1CC9FBF9
    Liczba segmentów: 345
    Liczba mirrorów: 7
    Uploader: Leon Zawodowiec
    Upload dla: p2m.net.pl





    Pokaż HC

     
    Wszystko w porządku
    Zakończenie sprawdzania segmentów: 2014-08-18 05:11:52


    Ostatnio edytowane przez Markus* ; 18.08.2014 o 05:14




  2. Léon upija się na koszt 6 osób:

    ankka24 (22.09.2015), Anonimowy Brzdąc  (23.08.2014), decoya (26.08.2014), Gandalf (10.01.2015), W (17.08.2014), zanik (21.08.2014)

Zakładki

Zakładki

Uprawnienia

  • Nie możesz zakładać nowych tematów
  • Nie możesz pisać wiadomości
  • Nie możesz dodawać załączników
  • Nie możesz edytować swoich postów
  •  
  • BB Code jest Włączony
  • EmotikonyWłączony
  • [IMG] kod jest Włączony
  • [VIDEO] code is Włączony
  • HTML jest Wyłączony
  • Trackbacki : Wyłączony
  • Pingbacki : Wyłączony
  • Refbacki : Włączony