Pokaż wyniki od 1 do 1 z 1
  1. #1
    Professional Uploader Avatar Léon
    Dołączył
    16.12.2013
    Skąd
    Paryż
    Postów
    5 411
    Postawił
    33
    Piwa otrzymane
    16 405 (4 968)

    OK Trailer Park Boys 3: Don't Legalize It | 2014 [SUB.PL][720p][BRRip]


    Trailer Park Boys 3: Don't Legalize It (2014)







    Ocena: 6,7/10
    Produkcja: Kanada,
    Gatunek: Dramat, Komedia, Kryminał,
    Światowa Premiera: 2014-04-18
    Polska Premiera: b/d
    Reżyseria: Mike Clattenburg
    Zdjęcia: b/d
    Scenariusz: Mike Clattenburg
    Muzyka:
    Czas trwania: 1 godz. 35 min.
    Dystrybucja: b/d
    O filmie: Trailer Park Boys 3: Don't Legalize It (2014) - Filmweb





    John Paul Tremblay - Julian
    Robb Wells - Ricky
    Mike Smith - Bubbles
    John Dunsworth - Jim Lahey





    Julian właśnie wyszedł z więzienia, ale zamierza wrócić do dawnych zajęć. Okazuje się, że pod jego nieobecność rząd postanowił zalegalizować marihuanę, co może popsuć jego plan szybkiego wyjścia na prostą.









    Kod:
    Format : AVI
    Format/Info: Audio Video Interleave
    Format profile : OpenDML
    Format settings: rec
    File size: 2.59 GiB
    Duration : 1h 35mn
    Overall bit rate : 3 889 Kbps
    Writing application: AVI-Mux GUI 1.17.8.3, Feb 16 201019:42:50
    
    Video
    ID : 0
    Format : MPEG-4 Visual
    Format profile : Advanced [email protected]
    Format settings, BVOP: 1
    Format settings, QPel: No
    Format settings, GMC : No warppoints
    Format settings, Matrix: Custom
    Codec ID : XVID
    Codec ID/Hint: XviD
    Duration : 1h 35mn
    Bit rate : 3 500 Kbps
    Width: 1 280 pixels
    Height : 720 pixels
    Display aspect ratio : 16:9
    Frame rate : 23.976 fps
    Color space: YUV
    Chroma subsampling : 4:2:0
    Bit depth: 8 bits
    Scan type: Progressive
    Compression mode : Lossy
    Bits/(Pixel*Frame) : 0.158
    Stream size: 2.33 GiB (90%)
    Writing library: XviD 1.2.1 (UTC 2008-12-04)
    
    Audio
    ID : 1
    Format : AC-3
    Format/Info: Audio Coding 3
    Mode extension : CM (complete main)
    Format settings, Endianness: Big
    Codec ID : 2000
    Duration : 1h 35mn
    Bit rate mode: Constant
    Bit rate : 384 Kbps
    Channel(s) : 6 channels
    Channel positions: Front: L C R, Side: L R, LFE
    Sampling rate: 48.0 KHz
    Bit depth: 16 bits
    Compression mode : Lossy
    Stream size: 261 MiB (10%)
    Alignment: Aligned on interleaves
    Interleave, duration : 64 ms (1.53 video frames)
    Interleave, preload duration : 192 ms
    Title: T2_Audio - English


    Nazwa pliku: Trailer.Park.Boys.Dont.Legalize.It.2014.SUB.PL.720p.BRRip.XviD.AC3.rar
    Rozmiar pliku: 2898,57 MB
    CRC32: 2FC1F45F
    Liczba segmentów: 342
    Liczba mirrorów: 8
    Uploader: Leon Zawodowiec
    Upload dla: p2m.net.pl





    Pokaż HC

     
    Wszystko w porządku
    Zakończenie sprawdzania segmentów: 2014-08-18 05:19:37


    Ostatnio edytowane przez Markus* ; 18.08.2014 o 06:21




  2. Léon upija się na koszt:

    W (17.08.2014)

Zakładki

Zakładki

Uprawnienia

  • Nie możesz zakładać nowych tematów
  • Nie możesz pisać wiadomości
  • Nie możesz dodawać załączników
  • Nie możesz edytować swoich postów
  •  
  • BB Code jest Włączony
  • EmotikonyWłączony
  • [IMG] kod jest Włączony
  • [VIDEO] code is Włączony
  • HTML jest Wyłączony
  • Trackbacki : Wyłączony
  • Pingbacki : Wyłączony
  • Refbacki : Włączony