Pokaż wyniki od 1 do 1 z 1
  1. #1
    VIP Avatar Mikson
    Dołączył
    22.05.2010
    Skąd
    Nibylandia
    Postów
    67
    Postawił
    17
    Piwa otrzymane
    213 (76)

    OK Rodzinne rewolucje | 2014 | [BLU-RAY] [1080] [x264]


    Rodzinne rewolucje (2014)
    Blended










    Ocena: 7,2/10
    Produkcja: USA,
    Gatunek: Komedia,
    Światowa Premiera: 2014-05-22
    Polska Premiera: 2014-07-04
    Reżyseria: Frank Coraci
    Zdjęcia: Julio Macat
    Scenariusz: Ivan MenchellClare Sera
    Muzyka: Rupert Gregson-Williams
    Czas trwania: 1 godz. 57 min.
    Dystrybucja: Warner Bros. Entertainment Polska Sp. z o. o.
    O filmie: Rodzinne rewolucje (2014) - Filmweb







    Adam Sandler - Jim
    Drew Barrymore - Lauren
    Kevin Nealon - Eddy
    Terry Crews - Nickens







    Po katastrofalnej randce w ciemno samotni rodzice, Lauren (Barrymore) i Jim (Sandler) zgadzają się tylko co do jednego – nie chcą się już nigdy więcej widzieć. Kiedy jednak każde z nich postanawia wyjechać na niezapomniane wakacje z dziećmi, okazuje się, że przez tydzień będą skazani na swoje towarzystwo w luksusowym afrykańskim kurorcie.













    Kod:
    Format : Matroska
    Format version : Version 4 / Version 2
    File size: 8.74 GiB
    Duration : 1h 57mn
    Overall bit rate : 10.7 Mbps
    Encoded date : UTC 2014-09-13 22:01:51
    Writing application: mkvmerge v6.2.0 ('Promised Land') built on Apr 28 2013 12:22:01
    Writing library: libebml v1.3.0 + libmatroska v1.4.0
    
    
    Video
    ID : 1
    Format : AVC
    Format/Info: Advanced Video Codec
    Format profile : [email protected]
    Format settings, CABAC : Yes
    Format settings, ReFrames: 4 frames
    Codec ID : V_MPEG4/ISO/AVC
    Duration : 1h 57mn
    Bit rate : 9 168 Kbps
    Width: 1 920 pixels
    Height : 1 040 pixels
    Display aspect ratio : 1.85:1
    Frame rate mode: Constant
    Frame rate : 23.976 fps
    Color space: YUV
    Chroma subsampling : 4:2:0
    Bit depth: 8 bits
    Scan type: Progressive
    Bits/(Pixel*Frame) : 0.191
    Stream size: 7.33 GiB (84%)
    Writing library: x264 core 142 r2431 ac76440
    Language : English
    Default: Yes
    Forced : No
    
    
    Audio
    ID : 2
    Format : DTS
    Format/Info: Digital Theater Systems
    Mode : 16
    Format settings, Endianness: Big
    Codec ID : A_DTS
    Duration : 1h 57mn
    Bit rate mode: Constant
    Bit rate : 1 509 Kbps
    Channel(s) : 6 channels
    Channel positions: Front: L C R, Side: L R, LFE
    Sampling rate: 48.0 KHz
    Bit depth: 24 bits
    Compression mode : Lossy
    Stream size: 1.24 GiB (14%)
    Language : English
    Default: Yes
    Forced : No

    Part 1


    Nazwa pliku: Blended.2014.1080p.BluRay.x264-SPARKS.part1.rar
    Rozmiar pliku: 3850,00 MB
    CRC32: 43E561B8
    Liczba segmentów: 453
    Liczba mirrorów: 6
    Uploader: Mikson
    Upload dla: p2m.net.pl



    Part 2


    Nazwa pliku: Blended.2014.1080p.BluRay.x264-SPARKS.part2.rar
    Rozmiar pliku: 3850,00 MB
    CRC32: 792A90E0
    Liczba segmentów: 451
    Liczba mirrorów: 6
    Uploader: Mikson
    Upload dla: p2m.net.pl



    Part 3


    Nazwa pliku: Blended.2014.1080p.BluRay.x264-SPARKS.part3.rar
    Rozmiar pliku: 1891,77 MB
    CRC32: C23AACF2
    Liczba segmentów: 223
    Liczba mirrorów: 4
    Uploader: Mikson
    Upload dla: p2m.net.pl






    Part 1


    Pokaż HC

     
    Niedziałające mirrory:
     

    6 - abv.bg
    Zakończenie sprawdzania segmentów: 2014-08-18 05:25:38


    Part 2


    Pokaż HC

     
    Wszystko w porządku
    Zakończenie sprawdzania segmentów: 2014-08-18 05:25:46


    Part 3


    Pokaż HC

     
    Wszystko w porządku
    Zakończenie sprawdzania segmentów: 2014-08-18 05:25:46


    Ostatnio edytowane przez Markus* ; 18.08.2014 o 06:28

  2. Mikson upija się na koszt:

    W (18.08.2014)

Zakładki

Zakładki

Uprawnienia

  • Nie możesz zakładać nowych tematów
  • Nie możesz pisać wiadomości
  • Nie możesz dodawać załączników
  • Nie możesz edytować swoich postów
  •  
  • BB Code jest Włączony
  • EmotikonyWłączony
  • [IMG] kod jest Włączony
  • [VIDEO] code is Włączony
  • HTML jest Wyłączony
  • Trackbacki : Wyłączony
  • Pingbacki : Wyłączony
  • Refbacki : Włączony