Pokaż wyniki od 1 do 1 z 1
  1. #1
    VIP Avatar Mikson
    Dołączył
    22.05.2010
    Skąd
    Nibylandia
    Postów
    67
    Postawił
    17
    Piwa otrzymane
    213 (76)

    OK Godzilla | 2014 | [1080p] [BluRay]


    Godzilla (2014)










    Ocena: 6,5/10
    Produkcja: Japonia, USA,
    Gatunek: Thriller, Akcja, Sci-Fi,
    Światowa Premiera: 2014-05-08
    Polska Premiera: 2014-05-16
    Reżyseria: Gareth Edwards
    Zdjęcia: Seamus McGarvey
    Scenariusz: Max Borenstein
    Muzyka: Alexandre Desplat
    Czas trwania: 2 godz. 3 min.
    Dystrybucja: Warner Bros. Entertainment Polska Sp. z o. o.
    O filmie: Godzilla (2014) - Filmweb







    Aaron Taylor-Johnson - Ford Brody
    Ken Watanabe - Dr Ichiro Serizawa
    Bryan Cranston - Joe Brody
    Elizabeth Olsen - Elle Brody







    Zapierająca dech w piersiach reaktywacja historii kultowej Godzilli — postaci zrodzonej w wytwórni Toho. Tworzony z rozmachem film przygodowy, który pokazuje walkę najsławniejszego na świecie potwora przeciwko złym stworzeniom, które czerpią siłę z arogancji ludzkości wobec nauki i zagrażają światu.













    Kod:
    Format : Matroska
    Format version : Version 4 / Version 2
    File size: 8.74 GiB
    Duration : 2h 3mn
    Overall bit rate : 10.2 Mbps
    Encoded date : UTC 2014-08-22 02:30:13
    Writing application: mkvmerge v6.2.0 ('Promised Land') built on Apr 28 2013 12:22:01
    Writing library: libebml v1.3.0 + libmatroska v1.4.0
    
    
    Video
    ID : 1
    Format : AVC
    Format/Info: Advanced Video Codec
    Format profile : [email protected]
    Format settings, CABAC : Yes
    Format settings, ReFrames: 5 frames
    Codec ID : V_MPEG4/ISO/AVC
    Duration : 2h 3mn
    Bit rate : 8 656 Kbps
    Width: 1 920 pixels
    Height : 800 pixels
    Display aspect ratio : 2.40:1
    Frame rate mode: Constant
    Frame rate : 23.976 fps
    Color space: YUV
    Chroma subsampling : 4:2:0
    Bit depth: 8 bits
    Scan type: Progressive
    Bits/(Pixel*Frame) : 0.235
    Stream size: 7.27 GiB (83%)
    Writing library: x264 core 142 r2431 ac76440
    Encoding settings: cabac=1 / ref=5 / deblock=1:0:0 / analyse=0x3:0x133 / me=umh / subme=7 / psy=1 / psy_rd=1.00:0.00 / mixed_ref=1 / me_range=16 / chroma_me=1 / trellis=1 / 8x8dct=1 / cqm=0 / deadzone=21,11 / fast_pskip=0 / chroma_qp_offset=-2 / threads=18 / lookahead_threads=3 / sliced_threads=0 / nr=0 / decimate=1 / interlaced=0 / bluray_compat=0 / constrained_intra=0 / bframes=3 / b_pyramid=2 / b_adapt=1 / b_bias=0 / direct=1 / weightb=1 / open_gop=0 / weightp=2 / keyint=250 / keyint_min=23 / scenecut=40 / intra_refresh=0 / rc_lookahead=40 / rc=2pass / mbtree=1 / bitrate=8656 / ratetol=1.0 / qcomp=0.60 / qpmin=0 / qpmax=69 / qpstep=4 / cplxblur=20.0 / qblur=0.5 / ip_ratio=1.40 / aq=1:1.00
    Language : English
    Default: Yes
    Forced : No
    
    
    Audio
    ID : 2
    Format : DTS
    Format/Info: Digital Theater Systems
    Mode : 16
    Format settings, Endianness: Big
    Codec ID : A_DTS
    Duration : 2h 3mn
    Bit rate mode: Constant
    Bit rate : 1 509 Kbps
    Channel(s) : 6 channels
    Channel positions: Front: L C R, Side: L R, LFE
    Sampling rate: 48.0 KHz
    Bit depth: 24 bits
    Compression mode : Lossy
    Stream size: 1.30 GiB (15%)
    Language : English
    Default: Yes
    Forced : No

    Part 1


    Nazwa pliku: godzilla.2014.1080p.bluray.x264.part1.rar
    Rozmiar pliku: 3850,00 MB
    CRC32: 19E0653F
    Liczba segmentów: 457
    Liczba mirrorów: 6
    Uploader: Mikson
    Upload dla: p2m.net.pl



    Part 2


    Nazwa pliku: godzilla.2014.1080p.bluray.x264.part2.rar
    Rozmiar pliku: 3850,00 MB
    CRC32: DE63C9EB
    Liczba segmentów: 452
    Liczba mirrorów: 6
    Uploader: Mikson
    Upload dla: p2m.net.pl



    Part 3


    Nazwa pliku: godzilla.2014.1080p.bluray.x264.part3.rar
    Rozmiar pliku: 1907,44 MB
    CRC32: 048BD439
    Liczba segmentów: 227
    Liczba mirrorów: 6
    Uploader: Mikson
    Upload dla: p2m.net.pl






    Part 1


    Pokaż HC

     
    Wszystko w porządku
    Zakończenie sprawdzania segmentów: 2014-08-23 05:48:29


    Part 2


    Pokaż HC

     
    Wszystko w porządku
    Zakończenie sprawdzania segmentów: 2014-08-23 05:48:29


    Part 3


    Pokaż HC

     
    Wszystko w porządku
    Zakończenie sprawdzania segmentów: 2014-08-23 05:48:29


    Ostatnio edytowane przez Markus* ; 23.08.2014 o 05:51

  2. Mikson upija się na koszt 11 osób:

    Andzia88 (24.08.2014), ankka24 (22.09.2015), Bigos12 (24.08.2014), cystofor  (23.08.2014), Duet44 (5.10.2014), Duff  (28.08.2014), Isil (23.08.2014), liet (23.08.2014), Mamercus  (27.08.2014), rafal23 (28.08.2014), W (23.08.2014)

Zakładki

Zakładki

Uprawnienia

  • Nie możesz zakładać nowych tematów
  • Nie możesz pisać wiadomości
  • Nie możesz dodawać załączników
  • Nie możesz edytować swoich postów
  •  
  • BB Code jest Włączony
  • EmotikonyWłączony
  • [IMG] kod jest Włączony
  • [VIDEO] code is Włączony
  • HTML jest Wyłączony
  • Trackbacki : Wyłączony
  • Pingbacki : Wyłączony
  • Refbacki : Włączony