Pokaż wyniki od 1 do 1 z 1
  1. #1
    VIP Avatar Mikson
    Dołączył
    22.05.2010
    Skąd
    Nibylandia
    Postów
    67
    Postawił
    17
    Piwa otrzymane
    213 (76)

    OK Breaking the Girls | 2013 | [SUB.PL] [720p] [BRrip] [XviD]


    Breaking the Girls (2013)










    Ocena: 5,6/10
    Produkcja: USA,
    Gatunek: Thriller,
    Światowa Premiera: 2013-04-16
    Polska Premiera: b/d
    Reżyseria: Jamie Babbit
    Zdjęcia: Jeffrey Waldron
    Scenariusz: Mark DistefanoGuinevere Turner
    Muzyka: Mateo Messina
    Czas trwania: 1 godz. 23 min.
    Dystrybucja: b/d
    O filmie: Breaking the Girls (2013) - Filmweb







    Madeline Zima - Alex Layton
    Shawn Ashmore - Eric Nolan
    Agnes Bruckner - Sara Ryan
    John Stockwell - David Layton







    Historia studentki o imieniu Sara (Agnes Bruckner), która zostaje ośmieszona przez koleżankę. Wkrótce potem dziewczyna zaprzyjaźnia się z manipulacyjną Alex (Madeline Zima) namawiającą ją do dokonania morderstwa. Sara nie godzi się na to. Kiedy Alex popełnia zbrodnie, dziewczyna zostaje wrobiona.













    Kod:
    Format : AVI
    Format/Info: Audio Video Interleave
    Format profile : OpenDML
    File size: 2.51 GiB
    Duration : 1h 26mn
    Overall bit rate : 4 146 Kbps
    Writing application: VirtualDubMod 1.5.10.3 | www.virtualdub-fr.org || (build 2550/release)
    Writing library: VirtualDubMod build 2550/release
    
    
    Video
    ID : 0
    Format : MPEG-4 Visual
    Format profile : Advanced [email protected]
    Format settings, BVOP: 2
    Format settings, QPel: No
    Format settings, GMC : No warppoints
    Format settings, Matrix: Default (H.263)
    Codec ID : XVID
    Codec ID/Hint: XviD
    Duration : 1h 26mn
    Bit rate : 3 495 Kbps
    Width: 1 280 pixels
    Height : 720 pixels
    Display aspect ratio : 16:9
    Frame rate : 23.976 fps
    Color space: YUV
    Chroma subsampling : 4:2:0
    Bit depth: 8 bits
    Scan type: Progressive
    Compression mode : Lossy
    Bits/(Pixel*Frame) : 0.158
    Stream size: 2.12 GiB (84%)
    Writing library: XviD 1.2.1 (UTC 2008-12-04)
    
    
    Audio
    ID : 1
    Format : AC-3
    Format/Info: Audio Coding 3
    Mode extension : CM (complete main)
    Format settings, Endianness: Big
    Codec ID : 2000
    Duration : 1h 26mn
    Bit rate mode: Constant
    Bit rate : 640 Kbps
    Channel(s) : 6 channels
    Channel positions: Front: L C R, Side: L R, LFE
    Sampling rate: 48.0 KHz
    Bit depth: 16 bits
    Compression mode : Lossy
    Stream size: 397 MiB (15%)
    Alignment: Split accross interleaves
    Interleave, duration : 42 ms (1.00 video frame)
    Interleave, preload duration : 500 ms


    Nazwa pliku: Breaking.The.Girls.2013.SUB.PL.720p.BRRip.XviD.AC3.rar
    Rozmiar pliku: 2808,51 MB
    CRC32: DAA37729
    Liczba segmentów: 333
    Liczba mirrorów: 5
    Uploader: Mikson
    Upload dla: p2m.net.pl







    Pokaż HC

     
    Wszystko w porządku
    Zakończenie sprawdzania segmentów: 2014-09-01 21:57:32


    Ostatnio edytowane przez xaveq ; 1.09.2014 o 21:59

  2. Mikson upija się na koszt 4 osób:

    depesz1974 (1.09.2014), Jędrek404 (31.08.2014), raf194 (31.08.2014), W (31.08.2014)

Zakładki

Zakładki

Uprawnienia

  • Nie możesz zakładać nowych tematów
  • Nie możesz pisać wiadomości
  • Nie możesz dodawać załączników
  • Nie możesz edytować swoich postów
  •  
  • BB Code jest Włączony
  • EmotikonyWłączony
  • [IMG] kod jest Włączony
  • [VIDEO] code is Włączony
  • HTML jest Wyłączony
  • Trackbacki : Wyłączony
  • Pingbacki : Wyłączony
  • Refbacki : Włączony