Poka wyniki od 1 do 1 z 1
  1. #1
    Professional Uploader Avatar L廩n
    Do陰czy
    16.12.2013
    Sk康
    Pary
    Post闚
    5 411
    Postawi
    33
    Piwa otrzymane
    16 403 (4 968)

    OK Milion sposob闚, jak zgin望 na Zachodzie | 2014 [720p][BluRay]


    Milion sposob闚, jak zgin望 na Zachodzie (2014)
    A Million Ways to Die in the West







    Ocena: 6,3/10
    Produkcja: USA,
    Gatunek: Komedia, Western,
    安iatowa Premiera: 2014-05-29
    Polska Premiera: 2014-05-30
    Re篡seria: Seth MacFarlane
    Zdj璚ia: Michael Barrett
    Scenariusz: Seth MacFarlaneAlec SulkinWellesley Wild
    Muzyka: Joel McNeely
    Czas trwania: 1 godz. 54 min.
    Dystrybucja: United International Pictures Sp z o.o.
    O filmie: Milion sposob闚, jak zgin望 na Zachodzie (2014) - Filmweb





    Seth MacFarlane - Albert
    Charlize Theron - Anna
    Amanda Seyfried - Louise
    Liam Neeson - Clinch





    "Milion sposob闚, jak zgin望 na Zachodzie" to opowie軼i o Albercie, tch鏎zliwym hodowcy owiec. Gdy Albert wykr璚i si od uczestnictwa w tradycyjnej strzelaninie, jego kapry郾a dziewczyna rzuci豉 go dla innego. Tajemnicza nieznajoma, kt鏎a w豉郾ie przyby豉 do miasta, pomog豉 Albertowi odzyska wiar w siebie, a co wi璚ej para zacz窸a mie si ku sobie. Niestety, w mie軼ie zjawi si r闚nie m捫 kobiety, notoryczny przest瘼ca, dysz帷 膨dz zemsty. I oto Albert musi przetestowa 鈍ie穎 odzyskan odwag.









    Kod:
    Format : Matroska
    Format version : Version 4 / Version 2
    File size: 5.46 GiB
    Duration : 1h 55mn
    Overall bit rate : 6 744 Kbps
    Encoded date : UTC 2014-09-02 13:16:22
    Writing application: mkvmerge v6.2.0 ('Promised Land') built on Apr 28 2013 12:22:01
    Writing library: libebml v1.3.0 + libmatroska v1.4.0
    
    Video
    ID : 1
    Format : AVC
    Format/Info: Advanced Video Codec
    Format profile : [email protected]
    Format settings, CABAC : Yes
    Format settings, ReFrames: 5 frames
    Codec ID : V_MPEG4/ISO/AVC
    Duration : 1h 55mn
    Bit rate : 5 235 Kbps
    Width: 1 280 pixels
    Height : 536 pixels
    Display aspect ratio : 2.40:1
    Frame rate mode: Constant
    Frame rate : 23.976 fps
    Color space: YUV
    Chroma subsampling : 4:2:0
    Bit depth: 8 bits
    Scan type: Progressive
    Bits/(Pixel*Frame) : 0.318
    Stream size: 4.13 GiB (76%)
    Writing library: x264
    Language : English
    Default: Yes
    Forced : No
    
    Audio
    ID : 2
    Format : DTS
    Format/Info: Digital Theater Systems
    Mode : 16
    Format settings, Endianness: Big
    Codec ID : A_DTS
    Duration : 1h 55mn
    Bit rate mode: Constant
    Bit rate : 1 509 Kbps
    Channel(s) : 6 channels
    Channel positions: Front: L C R, Side: L R, LFE
    Sampling rate: 48.0 KHz
    Bit depth: 24 bits
    Compression mode : Lossy
    Stream size: 1.22 GiB (22%)
    Language : English
    Default: Yes
    Forced : No

    Part 1


    Nazwa pliku: A.Million.Ways.to.Die.in.the.West.2014.720p.BluRay.x264.part1.rar
    Rozmiar pliku: 3850,00 MB
    CRC32: DBE3314B
    Liczba segment闚: 456
    Liczba mirror闚: 8
    Uploader: Leon Zawodowiec
    Upload dla: p2m.net.pl


    Part 2


    Nazwa pliku: A.Million.Ways.to.Die.in.the.West.2014.720p.BluRay.x264.part2.rar
    Rozmiar pliku: 2132,05 MB
    CRC32: 5CC8D162
    Liczba segment闚: 251
    Liczba mirror闚: 7
    Uploader: Leon Zawodowiec
    Upload dla: p2m.net.pl




    Part 1


    Poka HC

     
    Wszystko w porz康ku
    Zako鎍zenie sprawdzania segment闚: 2014-09-04 00:00:03

    Part 2


    Poka HC

     
    Wszystko w porz康ku
    Zako鎍zenie sprawdzania segment闚: 2014-09-04 00:21:10

    Ostatnio edytowane przez xaveq ; 4.09.2014 o 00:26




  2. L廩n upija si na koszt 3 os鏏:

    decoya (21.09.2014), macko33 (4.09.2014), W (4.09.2014)

Zak豉dki

Zak豉dki

Uprawnienia

  • Nie mo瞠sz zak豉da nowych temat闚
  • Nie mo瞠sz pisa wiadomo軼i
  • Nie mo瞠sz dodawa za陰cznik闚
  • Nie mo瞠sz edytowa swoich post闚
  •  
  • BB Code jest W陰czony
  • Emotikony s W陰czony
  • [IMG] kod jest W陰czony
  • [VIDEO] code is W陰czony
  • HTML jest Wy陰czony
  • Trackbacki : Wy陰czony
  • Pingbacki : Wy陰czony
  • Refbacki : W陰czony