Pokaż wyniki od 1 do 1 z 1
  1. #1
    Professional Uploader Avatar Léon
    Dołączył
    16.12.2013
    Skąd
    Paryż
    Postów
    5 411
    Postawił
    33
    Piwa otrzymane
    16 403 (4 968)

    OK Transformers: Wiek zagłady | 2014 [PL.SUB][1080p][Web-DL]


    Transformers: Wiek zagłady (2014)
    Transformers: Age of Extinction







    Ocena: 6,6/10
    Produkcja: Chiny, USA,
    Gatunek: Akcja, Sci-Fi,
    Światowa Premiera: 2014-06-19
    Polska Premiera: 2014-06-27
    Reżyseria: Michael Bay
    Zdjęcia: Amir M. Mokri
    Scenariusz: Ehren Kruger
    Muzyka: Steve Jablonsky
    Czas trwania: 2 godz. 45 min.
    Dystrybucja: United International Pictures Sp z o.o.
    O filmie: Transformers: Wiek zagłady (2014) - Filmweb





    Mark Wahlberg - Cade Yeager
    Stanley Tucci - Joshua Joyce
    Kelsey Grammer - Harold Attinger
    Nicola Peltz - Tessa Yeager





    Ludzkość próbuje dojść do siebie po wydarzeniach, które miały miejsce w ostatnim czasie. Zarówno Autoboty jak i Decepticony praktycznie zniknęły z naszej planety. Mimo to nie wszyscy zapomnieli o ich istnieniu. Grupa naukowców i biznesmenów stara się, jak najwięcej dowiedzieć o technologii Transformersów, co często popycha ich do przekraczania granic, których nigdy nie powinni naruszać. Tymczasem na Ziemię powracają Decepticony i ponownie rozpoczyna się walka dobra ze złem.









    Kod:
    Format : Matroska
    Format version : Version 4 / Version 2
    File size: 5.74 GiB
    Duration : 2h 45mn
    Overall bit rate : 4 975 Kbps
    Movie name : EVO
    Encoded date : UTC 2014-09-16 10:03:01
    Writing application: mkvmerge v7.1.0 ('Good Love') 64bit built on Jul 27 2014 12:22:11
    Writing library: libebml v1.3.0 + libmatroska v1.4.1
    DURATION : 02:45:06.368000000
    NUMBER_OF_FRAMES : 309574
    NUMBER_OF_BYTES: 475505664
    _STATISTICS_WRITING_APP: mkvmerge v7.1.0 ('Good Love') 64bit built on Jul 27 2014 12:22:11
    _STATISTICS_WRITING_DATE_UTC : 2014-09-16 10:03:01
    _STATISTICS_TAGS : BPS DURATION NUMBER_OF_FRAMES NUMBER_OF_BYTES
    
    Video
    ID : 2
    Format : AVC
    Format/Info: Advanced Video Codec
    Format profile : [email protected]
    Format settings, CABAC : Yes
    Format settings, ReFrames: 5 frames
    Codec ID : V_MPEG4/ISO/AVC
    Duration : 2h 45mn
    Bit rate : 4 492 Kbps
    Width: 1 912 pixels
    Height : 796 pixels
    Display aspect ratio : 2.40:1
    Frame rate mode: Constant
    Frame rate : 23.976 fps
    Color space: YUV
    Chroma subsampling : 4:2:0
    Bit depth: 8 bits
    Scan type: Progressive
    Bits/(Pixel*Frame) : 0.123
    Stream size: 5.19 GiB (90%)
    Title: EVO
    Language : English
    Default: Yes
    Forced : No
    Color primaries: BT.709
    Transfer characteristics : BT.709
    Matrix coefficients: BT.709
    
    Audio
    ID : 3
    Format : AC-3
    Format/Info: Audio Coding 3
    Mode extension : CM (complete main)
    Format settings, Endianness: Big
    Codec ID : A_AC3
    Duration : 2h 45mn
    Bit rate mode: Constant
    Bit rate : 384 Kbps
    Channel(s) : 6 channels
    Channel positions: Front: L C R, Side: L R, LFE
    Sampling rate: 48.0 KHz
    Bit depth: 16 bits
    Compression mode : Lossy
    Stream size: 454 MiB (8%)
    Language : English
    Default: Yes
    Forced : Yes
    
    Text
    ID : 1
    Format : UTF-8
    Codec ID : S_TEXT/UTF8
    Codec ID/Info: UTF-8 Plain Text
    Title: Polish
    Language : Polish
    Default: Yes
    Forced : No

    Part 1


    Nazwa pliku: Transformers.Age.of.Extinction.2014.1080p.WEB.DL.x264.AC3.part1.rar
    Rozmiar pliku: 3850,00 MB
    CRC32: 0F232074
    Liczba segmentów: 452
    Liczba mirrorów: 9
    Uploader: Leon Zawodowiec
    Upload dla: p2m.net.pl


    Part 2


    Nazwa pliku: Transformers.Age.of.Extinction.2014.1080p.WEB.DL.x264.AC3.part2.rar
    Rozmiar pliku: 2536,61 MB
    CRC32: 20648948
    Liczba segmentów: 299
    Liczba mirrorów: 8
    Uploader: Leon Zawodowiec
    Upload dla: p2m.net.pl




    Part 1


    Pokaż HC

     
    Braki:
    Mirror: 1 - e-mail.ua
    Zakończenie sprawdzania segmentów: 2014-09-17 23:20:47

    Part 2


    Pokaż HC

     
    Braki:
    Mirror: 4 - e-mail.ua
    Zakończenie sprawdzania segmentów: 2014-09-17 23:39:23


    Ostatnio edytowane przez xaveq ; 17.09.2014 o 23:43




  2. Léon upija się na koszt 5 osób:

    Andzia88 (17.09.2014), Mamercus  (21.09.2014), marcco (4.10.2014), pavvelec (12.10.2014), W (17.09.2014)

Zakładki

Zakładki

Uprawnienia

  • Nie możesz zakładać nowych tematów
  • Nie możesz pisać wiadomości
  • Nie możesz dodawać załączników
  • Nie możesz edytować swoich postów
  •  
  • BB Code jest Włączony
  • EmotikonyWłączony
  • [IMG] kod jest Włączony
  • [VIDEO] code is Włączony
  • HTML jest Wyłączony
  • Trackbacki : Wyłączony
  • Pingbacki : Wyłączony
  • Refbacki : Włączony