Pokaż wyniki od 1 do 1 z 1
  1. #1
    Professional Uploader Avatar Léon
    Dołączył
    16.12.2013
    Skąd
    Paryż
    Postów
    5 411
    Postawił
    33
    Piwa otrzymane
    16 405 (4 968)

    OK Na skraju jutra | 2014 [720p][BluRay]


    Na skraju jutra (2014)
    Edge of Tomorrow







    Ocena: 7,5/10
    Produkcja: Australia, USA,
    Gatunek: Akcja, Sci-Fi,
    Światowa Premiera: 2014-05-28
    Polska Premiera: 2014-06-06
    Reżyseria: Doug Liman
    Zdjęcia: Dion Beebe
    Scenariusz: Christopher McQuarrieJez ButterworthJohn-Henry Butterworth
    Muzyka: Christophe Beck
    Czas trwania: 1 godz. 53 min.
    Dystrybucja: Warner Bros. Entertainment Polska Sp. z o. o.
    O filmie: Na skraju jutra (2014) - Filmweb





    Tom Cruise - Cage
    Emily Blunt - Rita
    Brendan Gleeson - Generał Brigham
    Bill Paxton - Starszy sierżant Farell





    Akcja filmu rozgrywa się w niedalekiej przyszłości, w której rasa obcych, zwanych Mimikami (Mimics), przypuściła na Ziemię bezlitosny atak i rozpanoszyła niczym pszczeli rój, obracając w ruinę całe miasta i zostawiając za sobą miliony ludzkich ofiar. Żadna armia na świecie nie może dorównać szybkością, okrucieństwem czy pozorną zdolnością przewidywania przyszłości uzbrojonym po zęby wojownikom z kosmosu, jak również ich dowódcom, którzy wydają rozkazy telepatycznie. Jednak[span class="fullText hide"]nadszedł czas, kiedy armie całego świata połączyły swoje siły, by stanąć do decydującej walki na śmierć i życie przeciwko napastnikom z kosmosu. Podpułkownik Bill Cage (Cruise), żołnierz, który jeszcze nigdy nie znalazł się w ogniu walki, zostaje bezceremonialnie zdegradowany i rzucony – bez odpowiedniego szkolenia i sprzętu – w sam środek, jak się później okazuje, czegoś więcej niż tylko misji samobójczej. Cage ginie podczas swojej pierwszej misji, zabijając jednego z obcych samców Alfa. Jednak, dziwnym zbiegiem okoliczności, budzi się do życia rankiem w dniu swojej śmierci i jest zmuszony walczyć i umierać... bez końca. Bezpośredni kontakt fizyczny z kosmitą spowodował, że Cage znalazł się w pętli czasowej i został skazany na przeżywanie tej samej brutalnej walki raz po raz. Jednak z każdym kolejnym powrotem Cage staje się silniejszy, sprytniejszy i jest w stanie coraz skuteczniej stawiać opór przybyszom z kosmosu. Towarzyszy mu bojowniczka Sił Specjalnych, Rita Vrataski (Blunt), która dokonała największych spustoszeń w oddziałach obcych spośród wszystkich walczących na Ziemi. Kiedy Cage i Rita decydują się podjąć walkę z kosmitami, każda przeżywana od nowa bitwa staje się kolejną okazją do znalezienia sposobu na unicestwienie najeźdźców z kosmosu i ocalenie Ziemi.









    Kod:
    Format : Matroska
    Format version : Version 4 / Version 2
    File size: 5.46 GiB
    Duration : 1h 53mn
    Overall bit rate : 6 889 Kbps
    Encoded date : UTC 2014-09-16 23:24:31
    Writing application: mkvmerge v6.2.0 ('Promised Land') built on Apr 28 2013 12:22:01
    Writing library: libebml v1.3.0 + libmatroska v1.4.0
    
    Video
    ID : 1
    Format : AVC
    Format/Info: Advanced Video Codec
    Format profile : [email protected]
    Format settings, CABAC : Yes
    Format settings, ReFrames: 5 frames
    Codec ID : V_MPEG4/ISO/AVC
    Duration : 1h 53mn
    Bit rate : 5 379 Kbps
    Width: 1 280 pixels
    Height : 536 pixels
    Display aspect ratio : 2.40:1
    Frame rate mode: Constant
    Frame rate : 23.976 fps
    Color space: YUV
    Chroma subsampling : 4:2:0
    Bit depth: 8 bits
    Scan type: Progressive
    Bits/(Pixel*Frame) : 0.327
    Stream size: 4.16 GiB (76%)
    Writing library: x264 
    Language : English
    Default: Yes
    Forced : No
    
    Audio
    ID : 2
    Format : DTS
    Format/Info: Digital Theater Systems
    Mode : 16
    Format settings, Endianness: Big
    Codec ID : A_DTS
    Duration : 1h 53mn
    Bit rate mode: Constant
    Bit rate : 1 509 Kbps
    Channel(s) : 6 channels
    Channel positions: Front: L C R, Side: L R, LFE
    Sampling rate: 48.0 KHz
    Bit depth: 24 bits
    Compression mode : Lossy
    Stream size: 1.20 GiB (22%)
    Language : English
    Default: Yes
    Forced : No

    Part 1


    Nazwa pliku: Edge.of.Tomorrow.2014.720p.BluRay.x264.part1.rar
    Rozmiar pliku: 3850,00 MB
    CRC32: E9C22E9E
    Liczba segmentów: 460
    Liczba mirrorów: 6
    Uploader: Leon Zawodowiec
    Upload dla: p2m.net.pl


    Part 2


    Nazwa pliku: Edge.of.Tomorrow.2014.720p.BluRay.x264.part2.rar
    Rozmiar pliku: 2144,74 MB
    CRC32: 5C6FB470
    Liczba segmentów: 254
    Liczba mirrorów: 6
    Uploader: Leon Zawodowiec
    Upload dla: p2m.net.pl




    Part 1


    Pokaż HC

     
    Braki:
    Mirror: 2 - ig.com.br
    [347,385,390,416,448,457]
    Zakończenie sprawdzania segmentów: 2014-09-20 08:54:51

    Part 2


    Pokaż HC

     
    Wszystko w porządku
    Zakończenie sprawdzania segmentów: 2014-09-20 08:56:32


    Ostatnio edytowane przez xaveq ; 20.09.2014 o 09:59




  2. Léon upija się na koszt 7 osób:

    ajo (16.10.2014), atmar (9.11.2014), pavvelec (12.10.2014), Rock Fever (18.09.2014), rulonista (20.09.2014), W (18.09.2014), wojs99 (24.01.2015)

Zakładki

Zakładki

Uprawnienia

  • Nie możesz zakładać nowych tematów
  • Nie możesz pisać wiadomości
  • Nie możesz dodawać załączników
  • Nie możesz edytować swoich postów
  •  
  • BB Code jest Włączony
  • EmotikonyWłączony
  • [IMG] kod jest Włączony
  • [VIDEO] code is Włączony
  • HTML jest Wyłączony
  • Trackbacki : Wyłączony
  • Pingbacki : Wyłączony
  • Refbacki : Włączony